Поиск

(Afro-Cuban Jazz, Soundtrack) (Valdés) Bebo Valdes - Chico & Rita - 2011, FLAC (tracks+.cue), lossless

(Afro-Cuban Jazz, Soundtrack) (Valdés) Bebo Valdes - Chico & Rita - 2011, FLAC (tracks+.cue), lossless
Треклист:
Bebo Valdés – Chico & Rita Жанр: Afro-Cuban Jazz, Soundtrack
Год издания: 2011
Издатель (лейбл): Calle54
Номер по каталогу: 7840792
Аудиокодек: FLAC (*.flac)
Тип рипа: tracks+.cue
Битрейт аудио: lossless
Продолжительность: 63:22
Rip by Pastafari
Наличие сканов в содержимом раздачи: да
Треклист:
01. Cachao, Creador del Mambo (0:46)
02. Blues for Andre (4:30)
03. Besame Mucho (2:06)
04. Con poco coco (2:41)
05. Ebony Concerto (1:17)
06. Persecucion (1:32)
07. Celia (2:24)
08. Paran pan pan (3:01)
09. Sabor a mi (1:17)
10. Ay que mala e (1:49)
11. Sabor a mi (3:26)
12. A Mayra • Desamor and coda (1:49)
13. A Mayra • Descarga (2:05)
14. A Mayra • Sad Walk (0:30)
15. Chico's Dream (1:24)
16. Ecuacion (3:27)
17. Tin Tin Deo (3:16)
18. Chano Pozo (0:55)
19. Nocturno en batanga (2:44)
20. Nocturno en batanga (0:30)
21. Love for Sale (1:45)
22. Love for Sale (reprise) (0:42)
23. Lily (1:42)
24. Stardust (1:18)
25. A Mayra (2:43)
26. Vanguard Strings (0:30)
27. Mambo Herd (1:45)
28. Deportacion (1:30)
29. Lily (5:49)
30. La Bella Cubana (4:09)
 
 
Лог создания рипа
Exact Audio Copy V1.0 beta 2 from 29. April 2011
EAC extraction logfile from 10. February 2012, 20:02
Bebo Valdés / Chico y Rita
Used drive : TSSTcorpCDDVDW TS-H653N Adapter: 2 ID: 2
Read mode : Secure
Utilize accurate stream : Yes
Defeat audio cache : Yes
Make use of C2 pointers : No
Read offset correction : 6
Overread into Lead-In and Lead-Out : No
Fill up missing offset samples with silence : Yes
Delete leading and trailing silent blocks : No
Null samples used in CRC calculations : Yes
Used interface : Native Win32 interface for Win NT & 2000
Gap handling : Appended to previous track
Used output format : User Defined Encoder
Selected bitrate : 1024 kBit/s
Quality : High
Add ID3 tag : No
Command line compressor : C:\Program Files\FLAC -\flac.exe
Additional command line options : -5 -V -T "COMMENT=shared by pastafari" -T "ARTIST=%artist%" -T "TITLE=%title%" -T "ALBUM=%albumtitle%" -T "DATE=%year%" -T "TRACKNUMBER=%tracknr%" -T "GENRE=%genre%" -T "PERFORMER=%albuminterpret%" -T "COMPOSER=%composer%"
TOC of the extracted CD
Track | Start | Length | Start sector | End sector
---------------------------------------------------------
1 | 0:00.00 | 0:45.54 | 0 | 3428
2 | 0:45.54 | 4:30.19 | 3429 | 23697
3 | 5:15.73 | 2:05.48 | 23698 | 33120
4 | 7:21.46 | 2:40.59 | 33121 | 45179
5 | 10:02.30 | 1:16.63 | 45180 | 50942
6 | 11:19.18 | 1:31.54 | 50943 | 57821
7 | 12:50.72 | 2:24.31 | 57822 | 68652
8 | 15:15.28 | 3:00.66 | 68653 | 82218
9 | 18:16.19 | 1:16.58 | 82219 | 87976
10 | 19:33.02 | 1:48.71 | 87977 | 96147
11 | 21:21.73 | 3:26.20 | 96148 | 111617
12 | 24:48.18 | 1:49.26 | 111618 | 119818
13 | 26:37.44 | 2:04.52 | 119819 | 129170
14 | 28:42.21 | 0:30.25 | 129171 | 131445
15 | 29:12.46 | 1:23.58 | 131446 | 137728
16 | 30:36.29 | 3:27.16 | 137729 | 153269
17 | 34:03.45 | 3:16.19 | 153270 | 167988
18 | 37:19.64 | 0:55.09 | 167989 | 172122
19 | 38:14.73 | 2:44.07 | 172123 | 184429
20 | 40:59.05 | 0:29.50 | 184430 | 186654
21 | 41:28.55 | 1:44.56 | 186655 | 194510
22 | 43:13.36 | 0:41.58 | 194511 | 197643
23 | 43:55.19 | 1:42.19 | 197644 | 205312
24 | 45:37.38 | 1:18.04 | 205313 | 211166
25 | 46:55.42 | 2:42.63 | 211167 | 223379
26 | 49:38.30 | 0:30.30 | 223380 | 225659
27 | 50:08.60 | 1:44.59 | 225660 | 233518
28 | 51:53.44 | 1:30.37 | 233519 | 240305
29 | 53:24.06 | 5:49.13 | 240306 | 266493
30 | 59:13.19 | 4:08.46 | 266494 | 285139
Track 1
Filename C:\pastafari\Bebo Valdés - Chico y Rita (2011) [FLAC]\01 - Cachao creador del mambo.wav
Pre-gap length 0:00:02.00
Peak level 91.4 %
Extraction speed 3.0 X
Track quality 100.0 %
Test CRC E6FDD8D2
Copy CRC E6FDD8D2
Accurately ripped (confidence 2) [05A220CE] (AR v2)
Copy OK
Track 2
Filename C:\pastafari\Bebo Valdés - Chico y Rita (2011) [FLAC]\02 - Blues for André.wav
Peak level 98.6 %
Extraction speed 4.2 X
Track quality 99.9 %
Test CRC 32E1A064
Copy CRC 32E1A064
Accurately ripped (confidence 2) [923A5FCB] (AR v2)
Copy OK
Track 3
Filename C:\pastafari\Bebo Valdés - Chico y Rita (2011) [FLAC]\03 - Besame mucho.wav
Peak level 83.2 %
Extraction speed 4.8 X
Track quality 100.0 %
Test CRC 69ACD3F8
Copy CRC 69ACD3F8
Accurately ripped (confidence 2) [06479435] (AR v2)
Copy OK
Track 4
Filename C:\pastafari\Bebo Valdés - Chico y Rita (2011) [FLAC]\04 - Con un poco de coco.wav
Peak level 90.8 %
Extraction speed 5.3 X
Track quality 100.0 %
Test CRC 7150C0AF
Copy CRC 7150C0AF
Accurately ripped (confidence 2) [8A132C69] (AR v2)
Copy OK
Track 5
Filename C:\pastafari\Bebo Valdés - Chico y Rita (2011) [FLAC]\05 - Ebony concerto.wav
Peak level 85.3 %
Extraction speed 4.5 X
Track quality 100.0 %
Test CRC F0B9FC2C
Copy CRC F0B9FC2C
Accurately ripped (confidence 2) [4B52F940] (AR v2)
Copy OK
Track 6
Filename C:\pastafari\Bebo Valdés - Chico y Rita (2011) [FLAC]\06 - Persecucion.wav
Peak level 98.6 %
Extraction speed 4.9 X
Track quality 100.0 %
Test CRC 38C2B873
Copy CRC 38C2B873
Accurately ripped (confidence 2) [3812C0A3] (AR v2)
Copy OK
Track 7
Filename C:\pastafari\Bebo Valdés - Chico y Rita (2011) [FLAC]\07 - Celia.wav
Peak level 76.4 %
Extraction speed 4.0 X
Track quality 99.9 %
Test CRC 29F38BE9
Copy CRC 29F38BE9
Accurately ripped (confidence 2) [B90FEB7D] (AR v2)
Copy OK
Track 8
Filename C:\pastafari\Bebo Valdés - Chico y Rita (2011) [FLAC]\08 - Paran pan pan.wav
Peak level 88.4 %
Extraction speed 6.1 X
Track quality 100.0 %
Test CRC D79AB51F
Copy CRC D79AB51F
Accurately ripped (confidence 2) [754D71CA] (AR v2)
Copy OK
Track 9
Filename C:\pastafari\Bebo Valdés - Chico y Rita (2011) [FLAC]\09 - Sabor a mi.wav
Peak level 85.4 %
Extraction speed 5.0 X
Track quality 100.0 %
Test CRC F86660D6
Copy CRC F86660D6
Accurately ripped (confidence 2) [40611EB0] (AR v2)
Copy OK
Track 10
Filename C:\pastafari\Bebo Valdés - Chico y Rita (2011) [FLAC]\10 - Ay que mala é.wav
Peak level 98.1 %
Extraction speed 5.7 X
Track quality 100.0 %
Test CRC 6EBC825F
Copy CRC 6EBC825F
Accurately ripped (confidence 2) [AAA6B38F] (AR v2)
Copy OK
Track 11
Filename C:\pastafari\Bebo Valdés - Chico y Rita (2011) [FLAC]\11 - Sabor a mi.wav
Peak level 83.8 %
Extraction speed 6.7 X
Track quality 100.0 %
Test CRC 297089C5
Copy CRC 297089C5
Accurately ripped (confidence 2) [935F6362] (AR v2)
Copy OK
Track 12
Filename C:\pastafari\Bebo Valdés - Chico y Rita (2011) [FLAC]\12 - A Mayra. Desamor and coda.wav
Peak level 92.4 %
Extraction speed 6.1 X
Track quality 100.0 %
Test CRC A2D2CC9A
Copy CRC A2D2CC9A
Accurately ripped (confidence 2) [1A3822C4] (AR v2)
Copy OK
Track 13
Filename C:\pastafari\Bebo Valdés - Chico y Rita (2011) [FLAC]\13 - A Mayra. Descarga.wav
Peak level 98.6 %
Extraction speed 6.4 X
Track quality 100.0 %
Test CRC 3EB460B6
Copy CRC 3EB460B6
Accurately ripped (confidence 2) [5B8B8ECF] (AR v2)
Copy OK
Track 14
Filename C:\pastafari\Bebo Valdés - Chico y Rita (2011) [FLAC]\14 - A Mayra. Sad Walk.wav
Peak level 83.9 %
Extraction speed 3.7 X
Track quality 100.0 %
Test CRC C43860D5
Copy CRC C43860D5
Accurately ripped (confidence 2) [F61459A4] (AR v2)
Copy OK
Track 15
Filename C:\pastafari\Bebo Valdés - Chico y Rita (2011) [FLAC]\15 - Chico's dream.wav
Peak level 98.6 %
Extraction speed 5.9 X
Track quality 100.0 %
Test CRC C6DBDBFE
Copy CRC C6DBDBFE
Accurately ripped (confidence 2) [01EE59EF] (AR v2)
Copy OK
Track 16
Filename C:\pastafari\Bebo Valdés - Chico y Rita (2011) [FLAC]\16 - Ecuacion.wav
Peak level 98.6 %
Extraction speed 7.4 X
Track quality 100.0 %
Test CRC A9B28A9F
Copy CRC A9B28A9F
Accurately ripped (confidence 2) [FFDC32BD] (AR v2)
Copy OK
Track 17
Filename C:\pastafari\Bebo Valdés - Chico y Rita (2011) [FLAC]\17 - Tin tin deo.wav
Peak level 98.6 %
Extraction speed 7.6 X
Track quality 100.0 %
Test CRC 61540682
Copy CRC 61540682
Accurately ripped (confidence 2) [51EC5B1C] (AR v2)
Copy OK
Track 18
Filename C:\pastafari\Bebo Valdés - Chico y Rita (2011) [FLAC]\18 - Chano Pozo.wav
Peak level 98.6 %
Extraction speed 2.9 X
Track quality 99.8 %
Test CRC 66F87103
Copy CRC 66F87103
Accurately ripped (confidence 2) [59BB5E50] (AR v2)
Copy OK
Track 19
Filename C:\pastafari\Bebo Valdés - Chico y Rita (2011) [FLAC]\19 - Nocturno en batanga.wav
Peak level 98.6 %
Extraction speed 7.6 X
Track quality 100.0 %
Test CRC E8F2855D
Copy CRC E8F2855D
Accurately ripped (confidence 2) [59E305B5] (AR v2)
Copy OK
Track 20
Filename C:\pastafari\Bebo Valdés - Chico y Rita (2011) [FLAC]\20 - Nocturno en batanga.wav
Peak level 92.8 %
Extraction speed 4.0 X
Track quality 100.0 %
Test CRC BE23995C
Copy CRC BE23995C
Accurately ripped (confidence 2) [7DAF8D15] (AR v2)
Copy OK
Track 21
Filename C:\pastafari\Bebo Valdés - Chico y Rita (2011) [FLAC]\21 - Love for sale.wav
Peak level 97.4 %
Extraction speed 7.0 X
Track quality 100.0 %
Test CRC 218C2AA1
Copy CRC 218C2AA1
Accurately ripped (confidence 2) [2149D2A9] (AR v2)
Copy OK
Track 22
Filename C:\pastafari\Bebo Valdés - Chico y Rita (2011) [FLAC]\22 - Love for sale-Reprise.wav
Peak level 98.6 %
Extraction speed 4.8 X
Track quality 100.0 %
Test CRC 4218CE5D
Copy CRC 4218CE5D
Accurately ripped (confidence 2) [4BB9BEDB] (AR v2)
Copy OK
Track 23
Filename C:\pastafari\Bebo Valdés - Chico y Rita (2011) [FLAC]\23 - Lily.wav
Peak level 84.9 %
Extraction speed 4.6 X
Track quality 99.8 %
Test CRC 6B20940F
Copy CRC 6B20940F
Accurately ripped (confidence 2) [5C16C841] (AR v2)
Copy OK
Track 24
Filename C:\pastafari\Bebo Valdés - Chico y Rita (2011) [FLAC]\24 - Stardust.wav
Peak level 98.6 %
Extraction speed 6.5 X
Track quality 100.0 %
Test CRC B68A92CD
Copy CRC B68A92CD
Accurately ripped (confidence 2) [378D2ED6] (AR v2)
Copy OK
Track 25
Filename C:\pastafari\Bebo Valdés - Chico y Rita (2011) [FLAC]\25 - A Mayra.wav
Peak level 98.6 %
Extraction speed 8.1 X
Track quality 100.0 %
Test CRC 21180719
Copy CRC 21180719
Accurately ripped (confidence 2) [DECCAD37] (AR v2)
Copy OK
Track 26
Filename C:\pastafari\Bebo Valdés - Chico y Rita (2011) [FLAC]\26 - Vanguard Strings.wav
Peak level 84.1 %
Extraction speed 4.4 X
Track quality 100.0 %
Test CRC E2D5CF5F
Copy CRC E2D5CF5F
Accurately ripped (confidence 2) [3C0A0242] (AR v2)
Copy OK
Track 27
Filename C:\pastafari\Bebo Valdés - Chico y Rita (2011) [FLAC]\27 - Mambo herd.wav
Peak level 98.6 %
Extraction speed 7.4 X
Track quality 100.0 %
Test CRC DB774B88
Copy CRC DB774B88
Accurately ripped (confidence 2) [4AE8C677] (AR v2)
Copy OK
Track 28
Filename C:\pastafari\Bebo Valdés - Chico y Rita (2011) [FLAC]\28 - Deportacion.wav
Peak level 81.6 %
Extraction speed 7.2 X
Track quality 100.0 %
Test CRC 38C609EE
Copy CRC 38C609EE
Accurately ripped (confidence 2) [08E306EB] (AR v2)
Copy OK
Track 29
Filename C:\pastafari\Bebo Valdés - Chico y Rita (2011) [FLAC]\29 - Lily.wav
Peak level 91.5 %
Extraction speed 9.4 X
Track quality 100.0 %
Test CRC 1DAA6BFA
Copy CRC 1DAA6BFA
Accurately ripped (confidence 2) [3512EB8D] (AR v2)
Copy OK
Track 30
Filename C:\pastafari\Bebo Valdés - Chico y Rita (2011) [FLAC]\30 - La bella cubana.wav
Peak level 61.4 %
Extraction speed 9.4 X
Track quality 100.0 %
Test CRC 595860D1
Copy CRC 595860D1
Accurately ripped (confidence 2) [8B55BD63] (AR v2)
Copy OK
All tracks accurately ripped
No errors occurred
End of status report
==== Log checksum 9708D5E16060114D5B96CC82A42788E41F8E2AF7D1BA0CAF2AE1446DC0A7CBE7 ====
 
Содержание индексной карты (.CUE)
REM GENRE Jazz
REM DATE 2011
REM DISCID B40ED91E
REM COMMENT "ExactAudioCopy v1.0b2"
PERFORMER "Bebo Valdes"
TITLE "Chico & Rita"
FILE "01. Cachao, Creador del Mambo.flac" WAVE
TRACK 01 AUDIO
FLAGS DCP
INDEX 01 00:00:00
FILE "02. Blues for Andre.flac" WAVE
TRACK 02 AUDIO
FLAGS DCP
INDEX 01 00:00:00
FILE "03. Besame Mucho.flac" WAVE
TRACK 03 AUDIO
FLAGS DCP
INDEX 01 00:00:00
FILE "04. Con poco coco.flac" WAVE
TRACK 04 AUDIO
FLAGS DCP
INDEX 01 00:00:00
FILE "05. Ebony Concerto.flac" WAVE
TRACK 05 AUDIO
FLAGS DCP
INDEX 01 00:00:00
FILE "06. Persecucion.flac" WAVE
TRACK 06 AUDIO
FLAGS DCP
INDEX 01 00:00:00
FILE "07. Celia.flac" WAVE
TRACK 07 AUDIO
FLAGS DCP
INDEX 01 00:00:00
FILE "08. Paran pan pan.flac" WAVE
TRACK 08 AUDIO
FLAGS DCP
INDEX 01 00:00:00
FILE "09. Sabor a mi.flac" WAVE
TRACK 09 AUDIO
FLAGS DCP
INDEX 01 00:00:00
FILE "10. Ay que mala e.flac" WAVE
TRACK 10 AUDIO
FLAGS DCP
INDEX 01 00:00:00
FILE "11. Sabor a mi.flac" WAVE
TRACK 11 AUDIO
FLAGS DCP
INDEX 01 00:00:00
FILE "12. A Mayra • Desamor and coda.flac" WAVE
TRACK 12 AUDIO
FLAGS DCP
INDEX 01 00:00:00
FILE "13. A Mayra • Descarga.flac" WAVE
TRACK 13 AUDIO
FLAGS DCP
INDEX 01 00:00:00
FILE "14. A Mayra • Sad Walk.flac" WAVE
TRACK 14 AUDIO
FLAGS DCP
INDEX 01 00:00:00
FILE "15. Chico's Dream.flac" WAVE
TRACK 15 AUDIO
FLAGS DCP
INDEX 01 00:00:00
FILE "16. Ecuacion.flac" WAVE
TRACK 16 AUDIO
FLAGS DCP
INDEX 01 00:00:00
FILE "17. Tin Tin Deo.flac" WAVE
TRACK 17 AUDIO
FLAGS DCP
INDEX 01 00:00:00
FILE "18. Chano Pozo.flac" WAVE
TRACK 18 AUDIO
FLAGS DCP
INDEX 01 00:00:00
FILE "19. Nocturno en batanga.flac" WAVE
TRACK 19 AUDIO
FLAGS DCP
INDEX 01 00:00:00
FILE "20. Nocturno en batanga.flac" WAVE
TRACK 20 AUDIO
FLAGS DCP
INDEX 01 00:00:00
FILE "21. Love for Sale.flac" WAVE
TRACK 21 AUDIO
FLAGS DCP
INDEX 01 00:00:00
FILE "22. Love for Sale (reprise).flac" WAVE
TRACK 22 AUDIO
FLAGS DCP
INDEX 01 00:00:00
FILE "23. Lily.flac" WAVE
TRACK 23 AUDIO
FLAGS DCP
INDEX 01 00:00:00
FILE "24. Stardust.flac" WAVE
TRACK 24 AUDIO
FLAGS DCP
INDEX 01 00:00:00
FILE "25. A Mayra.flac" WAVE
TRACK 25 AUDIO
FLAGS DCP
INDEX 01 00:00:00
FILE "26. Vanguard Strings.flac" WAVE
TRACK 26 AUDIO
FLAGS DCP
INDEX 01 00:00:00
FILE "27. Mambo Herd.flac" WAVE
TRACK 27 AUDIO
FLAGS DCP
INDEX 01 00:00:00
FILE "28. Deportacion.flac" WAVE
TRACK 28 AUDIO
FLAGS DCP
INDEX 01 00:00:00
FILE "29. Lily.flac" WAVE
TRACK 29 AUDIO
FLAGS DCP
INDEX 01 00:00:00
FILE "30. La Bella Cubana.flac" WAVE
TRACK 30 AUDIO
FLAGS DCP
INDEX 01 00:00:00
05:16
265
Нет комментариев. Ваш будет первым!