Поиск

(Post-Bop, Latin Jazz, Contemporary Jazz, World Fusion) VA - Miles Espanol. New Sketches Of Spain {2CD} - 2011, FLAC (tracks+.cue), lossless

Треклист:
•Miles Espanol. New Sketches Of Spain {2CD}•
Жанр: Post-Bop, Latin Jazz, Contemporary Jazz, World Fusion
Год издания: 2011
Издатель (лейбл): eOne Music
Номер по каталогу: EOM-CD-2104
Аудиокодек: FLAC (*.flac)
Тип рипа: tracks+.cue
Битрейт аудио: lossless
Продолжительность: 01:54:11
Источник (релизер): ruskaval
Наличие сканов в содержимом раздачи: да
 
CD1 - 00:55:40
Треклист:

01. Concierto De Aranjuez - Rabih Abou Khalil, Edmar Castañeda, Alex Acuña
02. Trampolin - Chick Corea, Ron Carter, Antonio Sanchez, Jorge Pardo
03. Just Three Miles - Rabih Abou Khalil, Chano Domínguez, Alex Acuña
04. Duende - Niño Joseles, Jorge Pardo
05. Fantasia Por Miles Y Gil - Gonzalo Rubalcaba
06. Broto Y Cayo - Alex Acuña, Adam Rudolph, Niño Joseles
07. Paisaje Urbano - Edsel Gomez, Alex Acuña, John Benitez, Sammy Figueroa
08. Saeta/Pan Piper - Cristina Pato, Edmar Castañeda
 
Лог создания рипа
Exact Audio Copy V1.0 beta 3 from 29. August 2011
EAC extraction logfile from 7. October 2012, 2:14
Various Artists / Miles Espanol. New Sketches Of Spain (CD1)
Used drive : ATAPI iHAS124 B Adapter: 4 ID: 0
Read mode : Secure
Utilize accurate stream : Yes
Defeat audio cache : Yes
Make use of C2 pointers : No
Read offset correction : 6
Overread into Lead-In and Lead-Out : No
Fill up missing offset samples with silence : Yes
Delete leading and trailing silent blocks : No
Null samples used in CRC calculations : Yes
Used interface : Native Win32 interface for Win NT & 2000
Gap handling : Appended to previous track
Used output format : User Defined Encoder
Selected bitrate : 1024 kBit/s
Quality : High
Add ID3 tag : No
Command line compressor : C:\Program Files (x86)\FLAC\flac.exe
Additional command line options : -8 -V -T "ARTIST=%artist%" -T "TITLE=%title%" -T "ALBUM=%albumtitle%" -T "DATE=%year%"
-T "TRACKNUMBER=%tracknr%" -T "GENRE=%genre%" -T "PERFORMER=%albuminterpret%" -T "COMPOSER=%composer%"
%haslyrics%--tag-from-file=LYRICS="%lyricsfile%"%haslyrics% -T "ALBUMARTIST=%albumartist%" -T "DISCNUMBER=%cdnumber%" -T
"TOTALDISCS=%totalcds%" -T "TOTALTRACKS=%numtracks%" -T "COMMENT=%comment%" %source% -o %dest%
TOC of the extracted CD
Track | Start | Length | Start sector | End sector
---------------------------------------------------------
1 | 0:00.00 | 9:25.57 | 0 | 42431
2 | 9:25.57 | 10:02.68 | 42432 | 87649
3 | 19:28.50 | 9:38.00 | 87650 | 130999
4 | 29:06.50 | 4:50.69 | 131000 | 152818
5 | 33:57.44 | 5:29.10 | 152819 | 177503
6 | 39:26.54 | 4:22.51 | 177504 | 197204
7 | 43:49.30 | 4:06.04 | 197205 | 215658
8 | 47:55.34 | 7:45.18 | 215659 | 250551
Track 1
Filename C:\EACs\Various Artists - Miles Espanol. New Sketches Of Spain (2011) [2CD] {eOne}\CD1\01 - Lou Marini -
Concierto de Aranjuez.wav
Pre-gap length 0:00:02.00
Peak level 96.0 %
Extraction speed 5.8 X
Track quality 100.0 %
Test CRC FAF008A4
Copy CRC FAF008A4
Accurately ripped (confidence 5) [E84E240E] (AR v1)
Copy OK
Track 2
Filename C:\EACs\Various Artists - Miles Espanol. New Sketches Of Spain (2011) [2CD] {eOne}\CD1\02 - Chick Corea -
Trampolin.wav
Peak level 97.6 %
Extraction speed 6.6 X
Track quality 99.9 %
Test CRC 85B125CC
Copy CRC 85B125CC
Accurately ripped (confidence 5) [D5FCC2CA] (AR v1)
Copy OK
Track 3
Filename C:\EACs\Various Artists - Miles Espanol. New Sketches Of Spain (2011) [2CD] {eOne}\CD1\03 - Tim Hagans -
Just Three Miles.wav
Peak level 97.6 %
Extraction speed 7.5 X
Track quality 99.9 %
Test CRC 37B41C41
Copy CRC 37B41C41
Accurately ripped (confidence 5) [279BAECF] (AR v1)
Copy OK
Track 4
Filename C:\EACs\Various Artists - Miles Espanol. New Sketches Of Spain (2011) [2CD] {eOne}\CD1\04 - Jorge Pardo -
Duende.wav
Peak level 97.1 %
Extraction speed 8.4 X
Track quality 100.0 %
Test CRC 24376D55
Copy CRC 24376D55
Accurately ripped (confidence 5) [6EE887F2] (AR v1)
Copy OK
Track 5
Filename C:\EACs\Various Artists - Miles Espanol. New Sketches Of Spain (2011) [2CD] {eOne}\CD1\05 - Gonzalo
Rubalcaba - Fantasia Por Miles Y Gil.wav
Peak level 97.6 %
Extraction speed 8.9 X
Track quality 100.0 %
Test CRC A48EE75C
Copy CRC A48EE75C
Accurately ripped (confidence 5) [838872F4] (AR v1)
Copy OK
Track 6
Filename C:\EACs\Various Artists - Miles Espanol. New Sketches Of Spain (2011) [2CD] {eOne}\CD1\06 - Nino Joseles -
Broto Y Cayo.wav
Peak level 95.8 %
Extraction speed 9.1 X
Track quality 100.0 %
Test CRC EEB1FA8E
Copy CRC EEB1FA8E
Accurately ripped (confidence 5) [2FD1E2A1] (AR v1)
Copy OK
Track 7
Filename C:\EACs\Various Artists - Miles Espanol. New Sketches Of Spain (2011) [2CD] {eOne}\CD1\07 - Edsel Gomez -
Paisaje Urbano.wav
Peak level 97.6 %
Extraction speed 9.2 X
Track quality 100.0 %
Test CRC B91EA2A7
Copy CRC B91EA2A7
Accurately ripped (confidence 5) [E1CD3AA4] (AR v1)
Copy OK
Track 8
Filename C:\EACs\Various Artists - Miles Espanol. New Sketches Of Spain (2011) [2CD] {eOne}\CD1\08 - Cristina Pato
- Saeta , Panpiper.wav
Peak level 97.6 %
Extraction speed 10.3 X
Track quality 100.0 %
Test CRC 97BA7F4D
Copy CRC 97BA7F4D
Accurately ripped (confidence 5) [906B6074] (AR v1)
Copy OK
All tracks accurately ripped
No errors occurred
End of status report
---- CUETools DB Plugin V2.1.3
[CTDB TOCID: OP515JvLQ3ON4Lvo0DCrspH29uw-] found, Submit result: OP515JvLQ3ON4Lvo0DCrspH29uw- has been confirmed
[a688cf16] (3/7) Accurately ripped
[2f1a8124] (4/7) Differs in 9 samples @11:46:21,34:53:39
You can use CUETools to repair this rip.
==== Log checksum E82534BCED528C1DE04665882B3688B2AA1D13FFCB09573ED1D3F9EED9F6AB5E ====
 
Содержание индексной карты (.CUE)
REM DATE 2011
REM DISCID 760D0C08
REM COMMENT "ExactAudioCopy v1.0b3"
PERFORMER "Various Artists"
TITLE "Miles Espanol. New Sketches Of Spain (CD1)"
FILE "01 - Lou Marini - Concierto de Aranjuez.wav" WAVE
TRACK 01 AUDIO
TITLE "Concierto de Aranjuez"
PERFORMER "Lou Marini"
FLAGS DCP
INDEX 01 00:00:00
FILE "02 - Chick Corea - Trampolin.wav" WAVE
TRACK 02 AUDIO
TITLE "Trampolin"
PERFORMER "Chick Corea"
FLAGS DCP
INDEX 01 00:00:00
FILE "03 - Tim Hagans - Just Three Miles.wav" WAVE
TRACK 03 AUDIO
TITLE "Just Three Miles"
PERFORMER "Tim Hagans"
FLAGS DCP
INDEX 01 00:00:00
FILE "04 - Jorge Pardo - Duende.wav" WAVE
TRACK 04 AUDIO
TITLE "Duende"
PERFORMER "Jorge Pardo"
FLAGS DCP
INDEX 01 00:00:00
FILE "05 - Gonzalo Rubalcaba - Fantasia Por Miles Y Gil.wav" WAVE
TRACK 05 AUDIO
TITLE "Fantasia Por Miles Y Gil"
PERFORMER "Gonzalo Rubalcaba"
FLAGS DCP
INDEX 01 00:00:00
FILE "06 - Nino Joseles - Broto Y Cayo.wav" WAVE
TRACK 06 AUDIO
TITLE "Broto Y Cayo"
PERFORMER "Nino Joseles"
FLAGS DCP
INDEX 01 00:00:00
FILE "07 - Edsel Gomez - Paisaje Urbano.wav" WAVE
TRACK 07 AUDIO
TITLE "Paisaje Urbano"
PERFORMER "Edsel Gomez"
FLAGS DCP
INDEX 01 00:00:00
FILE "08 - Cristina Pato - Saeta , Panpiper.wav" WAVE
TRACK 08 AUDIO
TITLE "Saeta / Panpiper"
PERFORMER "Cristina Pato"
FLAGS DCP
INDEX 01 00:00:00
 
CD2 - 00:58:30
Треклист:

01. Spantango - Jack DeJohnette, Chano Domínguez, Eddie Gomez, Jorge Pardo
02. Flamenco Sketches - Sonny Fortune, Jerry Gonzalez, Chano Domínguez, Sammy Figueroa, Alex Acuña, John Benitez
03. Tirititran Catalan - Chick Corea, Carles Benavent, Jack DeJohnette, Niño Joseles
04. El Swing - John Scofield, Chick Corea, Jack DeJohnette, Eddie Gomez
05. Momento - Gonzalo Rubalcaba, Ron Carter, Alex Acuña
06. Teo/Neo - Edsel Gomez, Alex Acuña, John Benitez, Sammy Figueroa
07. Beautiful Love - Niño Joseles, Chano Domínguez
08. Solea - Jaco Abel, Victor Prieto, Carles Benavent
 
Лог создания рипа
Exact Audio Copy V1.0 beta 3 from 29. August 2011
EAC extraction logfile from 7. October 2012, 2:40
Various Artists / Miles Espanol. New Sketches Of Spain (CD2)
Used drive : ATAPI iHAS124 B Adapter: 4 ID: 0
Read mode : Secure
Utilize accurate stream : Yes
Defeat audio cache : Yes
Make use of C2 pointers : No
Read offset correction : 6
Overread into Lead-In and Lead-Out : No
Fill up missing offset samples with silence : Yes
Delete leading and trailing silent blocks : No
Null samples used in CRC calculations : Yes
Used interface : Native Win32 interface for Win NT & 2000
Gap handling : Appended to previous track
Used output format : User Defined Encoder
Selected bitrate : 1024 kBit/s
Quality : High
Add ID3 tag : No
Command line compressor : C:\Program Files (x86)\FLAC\flac.exe
Additional command line options : -8 -V -T "ARTIST=%artist%" -T "TITLE=%title%" -T "ALBUM=%albumtitle%" -T "DATE=%year%"
-T "TRACKNUMBER=%tracknr%" -T "GENRE=%genre%" -T "PERFORMER=%albuminterpret%" -T "COMPOSER=%composer%"
%haslyrics%--tag-from-file=LYRICS="%lyricsfile%"%haslyrics% -T "ALBUMARTIST=%albumartist%" -T "DISCNUMBER=%cdnumber%" -T
"TOTALDISCS=%totalcds%" -T "TOTALTRACKS=%numtracks%" -T "COMMENT=%comment%" %source% -o %dest%
TOC of the extracted CD
Track | Start | Length | Start sector | End sector
---------------------------------------------------------
1 | 0:00.00 | 10:25.24 | 0 | 46898
2 | 10:25.24 | 7:09.72 | 46899 | 79145
3 | 17:35.21 | 4:55.69 | 79146 | 101339
4 | 22:31.15 | 7:01.25 | 101340 | 132939
5 | 29:32.40 | 5:14.50 | 132940 | 156539
6 | 34:47.15 | 8:58.51 | 156540 | 196940
7 | 43:45.66 | 7:31.04 | 196941 | 230769
8 | 51:16.70 | 7:13.52 | 230770 | 263296
Track 1
Filename C:\EACs\Various Artists - Miles Espanol. New Sketches Of Spain (2011) [2CD] {eOne}\CD2\01 - Chano
Dominguez - Spantango.wav
Pre-gap length 0:00:02.00
Peak level 97.6 %
Extraction speed 5.9 X
Track quality 100.0 %
Test CRC BC5C3209
Copy CRC BC5C3209
Accurately ripped (confidence 4) [914300DD] (AR v1)
Copy OK
Track 2
Filename C:\EACs\Various Artists - Miles Espanol. New Sketches Of Spain (2011) [2CD] {eOne}\CD2\02 - Sonny Fortune
- Flamenco Sketches.wav
Peak level 97.6 %
Extraction speed 6.2 X
Track quality 99.9 %
Test CRC 3A944A4B
Copy CRC 3A944A4B
Accurately ripped (confidence 4) [D6509CD7] (AR v1)
Copy OK
Track 3
Filename C:\EACs\Various Artists - Miles Espanol. New Sketches Of Spain (2011) [2CD] {eOne}\CD2\03 - Nino Joseles -
Tirititran Catalan.wav
Peak level 96.8 %
Extraction speed 7.3 X
Track quality 100.0 %
Test CRC DA44A1A5
Copy CRC DA44A1A5
Accurately ripped (confidence 4) [E0029AD2] (AR v1)
Copy OK
Track 4
Filename C:\EACs\Various Artists - Miles Espanol. New Sketches Of Spain (2011) [2CD] {eOne}\CD2\04 - John Scofield
- El Swing.wav
Peak level 96.3 %
Extraction speed 8.1 X
Track quality 100.0 %
Test CRC AF2D6E63
Copy CRC AF2D6E63
Accurately ripped (confidence 4) [BFC37D94] (AR v1)
Copy OK
Track 5
Filename C:\EACs\Various Artists - Miles Espanol. New Sketches Of Spain (2011) [2CD] {eOne}\CD2\05 - Gonzalo
Rubalcaba - Momento.wav
Peak level 95.4 %
Extraction speed 8.4 X
Track quality 100.0 %
Test CRC 1C3EFEE9
Copy CRC 1C3EFEE9
Accurately ripped (confidence 4) [12A2FED2] (AR v1)
Copy OK
Track 6
Filename C:\EACs\Various Artists - Miles Espanol. New Sketches Of Spain (2011) [2CD] {eOne}\CD2\06 - Edsel Gomez -
Teo , Neo.wav
Peak level 97.2 %
Extraction speed 9.1 X
Track quality 100.0 %
Test CRC ADCE841A
Copy CRC ADCE841A
Accurately ripped (confidence 4) [33A6E9D0] (AR v1)
Copy OK
Track 7
Filename C:\EACs\Various Artists - Miles Espanol. New Sketches Of Spain (2011) [2CD] {eOne}\CD2\07 - Nino Joseles -
Beautiful Love.wav
Peak level 96.0 %
Extraction speed 9.9 X
Track quality 100.0 %
Test CRC B6BD2763
Copy CRC B6BD2763
Accurately ripped (confidence 4) [AB83C736] (AR v1)
Copy OK
Track 8
Filename C:\EACs\Various Artists - Miles Espanol. New Sketches Of Spain (2011) [2CD] {eOne}\CD2\08 - Lou Marini -
Solea.wav
Peak level 97.6 %
Extraction speed 10.5 X
Track quality 100.0 %
Test CRC 2CA86DCD
Copy CRC 2CA86DCD
Accurately ripped (confidence 4) [9D6478B7] (AR v1)
Copy OK
All tracks accurately ripped
No errors occurred
End of status report
---- CUETools DB Plugin V2.1.3
[CTDB TOCID: TCm2RgLAzYljuNjH65kuWy3uRxo-] found, Submit result: already submitted
[1524539e] (9/9) Accurately ripped
==== Log checksum 796FD860C4CDD483952BAC8F0A1E2050F5C01FE9A4F24E6126B3B2125BCE667A ====
 
Содержание индексной карты (.CUE)
REM GENRE Jazz
REM DATE 2011
REM DISCID 730DB608
REM COMMENT "ExactAudioCopy v1.0b3"
PERFORMER "Various Artists"
TITLE "Miles Espanol. New Sketches Of Spain (CD2)"
FILE "01 - Chano Dominguez - Spantango.wav" WAVE
TRACK 01 AUDIO
TITLE "Spantango"
PERFORMER "Chano Dominguez"
FLAGS DCP
INDEX 01 00:00:00
FILE "02 - Sonny Fortune - Flamenco Sketches.wav" WAVE
TRACK 02 AUDIO
TITLE "Flamenco Sketches"
PERFORMER "Sonny Fortune"
FLAGS DCP
INDEX 01 00:00:00
FILE "03 - Nino Joseles - Tirititran Catalan.wav" WAVE
TRACK 03 AUDIO
TITLE "Tirititran Catalan"
PERFORMER "Nino Joseles"
FLAGS DCP
INDEX 01 00:00:00
FILE "04 - John Scofield - El Swing.wav" WAVE
TRACK 04 AUDIO
TITLE "El Swing"
PERFORMER "John Scofield"
FLAGS DCP
INDEX 01 00:00:00
FILE "05 - Gonzalo Rubalcaba - Momento.wav" WAVE
TRACK 05 AUDIO
TITLE "Momento"
PERFORMER "Gonzalo Rubalcaba"
FLAGS DCP
INDEX 01 00:00:00
FILE "06 - Edsel Gomez - Teo , Neo.wav" WAVE
TRACK 06 AUDIO
TITLE "Teo / Neo"
PERFORMER "Edsel Gomez"
FLAGS DCP
INDEX 01 00:00:00
FILE "07 - Nino Joseles - Beautiful Love.wav" WAVE
TRACK 07 AUDIO
TITLE "Beautiful Love"
PERFORMER "Nino Joseles"
FLAGS DCP
INDEX 01 00:00:00
FILE "08 - Lou Marini - Solea.wav" WAVE
TRACK 08 AUDIO
TITLE "Solea"
PERFORMER "Lou Marini"
FLAGS DCP
INDEX 01 00:00:00
 
Состав
Bob Belden: co-producer, arranger, marimbas, timpani; Ron Carter: bass; Jack DeJohnette drums; Sonny Fortune: flute; Eddie Gomez: bass; Gonzalo Rubalcaba: piano; John Scofield: guitar; Rabih Abou-Khalil: oud; John Clark: French horn: Tim Hagans: trumpet; Jerry Gonzalez: percussion, conga, flugelhorn; Adam Rudolph: tabla, caxixi, cajon, sintir, qarqaba; Jorge Pardo: flute; Alex Acuña: percussion, bongos, drums, maracas, bells, cajon, quinto; Carlos Benavent: bass; John Benítez: bass; Chick Corea: piano; Sammy Figuerova: percussion, conga, ganza; Scott Kinsey: synthesizer; Lou Marini: flute, bass flute; Michael Rabinowitz: bassoon; John Riley: timpani; Antonio Sanchéz: drums; Vince Wilburn Jr.: drums; Mike Williams: trumpet; Chano Domínguez: piano; Luisito Quintero: conga; Charles Pillow: English horn, oboe: Edsel Gomez: piano; Jaco Abel: guitar; Dominick Farinacci: trumpet; Victor Prieto: accordion; Cristina Pato: bagpipes; Edmar Castaneda: harp; Brahim Fribgame: dumbek, cajon; Niño Joseles guitar.
05:15
250
Нет комментариев. Ваш будет первым!