Поиск

(Afro-Cuban Jazz, Latin Jazz) Ray Barretto And New World Spirit - Contact! - 1997, FLAC (image+.cue), lossless

(Afro-Cuban Jazz, Latin Jazz) Ray Barretto And New World Spirit - Contact! - 1997, FLAC (image+.cue), lossless
•Ray Barretto And New World Spirit - Contact!•
Жанр: Afro-Cuban Jazz, Latin Jazz
Страна-производитель диска: France
Год издания: 1997
Издатель (лейбл): Blue Note
Номер по каталогу: 856974-2
Аудиокодек: FLAC (*.flac)
Тип рипа: image+.cue
Битрейт аудио: lossless
Продолжительность: 00:58:19
Источник (релизер): Oceandrop
Наличие сканов в содержимом раздачи: да
Треклист:
01.Moss Code [03:41]
02.Caravan [07:14]
03.Serenata [06:43]
04.Dance of Denial [05:51]
05.Poinciana [06:34]
06.Point of Contact (Punto de Contacto) [06:00]
07.La Bendicion [05:44]
08.Liberated Spirit [05:32]
09.The Summer Knows [06:12]
10.Sister Sadie [04:44]
Personnel:
Ray Barretto - congas, percussion
Adam Kolker - tenor & soprano sax.
Michael Philip Mossman - trumpet & trombone
John Di Martino - piano
Jairo Moreno - bass
Hans Glawishnig - bass (on 3 & 5)
Vince Cherico - drums
Ray Vega - percussion
 
Лог создания рипа
Exact Audio Copy V0.99 prebeta 5 from 4. May 2009
EAC extraction logfile from 29. March 2010, 18:19
Ray Barretto and New World Spirit / Contact!
Used drive : ASUS DRW-1608P3S Adapter: 0 ID: 1
Read mode : Secure
Utilize accurate stream : Yes
Defeat audio cache : Yes
Make use of C2 pointers : No
Read offset correction : 48
Overread into Lead-In and Lead-Out : No
Fill up missing offset samples with silence : Yes
Delete leading and trailing silent blocks : No
Null samples used in CRC calculations : Yes
Used interface : Native Win32 interface for Win NT & 2000
Used output format : Internal WAV Routines
Sample format : 44.100 Hz; 16 Bit; Stereo
TOC of the extracted CD
Track | Start | Length | Start sector | End sector
---------------------------------------------------------
1 | 0:00.00 | 3:41.30 | 0 | 16604
2 | 3:41.30 | 7:14.45 | 16605 | 49199
3 | 10:56.00 | 6:43.47 | 49200 | 79471
4 | 17:39.47 | 5:51.50 | 79472 | 105846
5 | 23:31.22 | 6:34.70 | 105847 | 135466
6 | 30:06.17 | 6:00.25 | 135467 | 162491
7 | 36:06.42 | 5:44.15 | 162492 | 188306
8 | 41:50.57 | 5:32.15 | 188307 | 213221
9 | 47:22.72 | 6:12.38 | 213222 | 241159
10 | 53:35.35 | 4:44.17 | 241160 | 262476
Range status and errors
Selected range
Filename G:\@@WORK@@\Ray Barretto and New World Spirit - Contact!\Ray Barretto and New World Spirit - Contact!.wav
Peak level 98.8 %
Range quality 100.0 %
Test CRC 97BC8396
Copy CRC 97BC8396
Copy OK
No errors occurred
AccurateRip summary
Track 1 accurately ripped (confidence 3) [16CB89F1]
Track 2 accurately ripped (confidence 3) [838F4D94]
Track 3 accurately ripped (confidence 3) [042C5590]
Track 4 accurately ripped (confidence 3) [3828C029]
Track 5 accurately ripped (confidence 3) [3B92558A]
Track 6 accurately ripped (confidence 3) [9F51962D]
Track 7 accurately ripped (confidence 3) [76A80DF6]
Track 8 accurately ripped (confidence 2) [8AD9E2F8]
Track 9 accurately ripped (confidence 2) [61FFA29D]
Track 10 accurately ripped (confidence 2) [8D06B6F9]
All tracks accurately ripped
End of status report
 
Содержание индексной карты (.CUE)
REM GENRE "Latin Jazz"
REM DATE 1997
REM DISCID 780DAB0A
REM COMMENT "ExactAudioCopy v0.99pb5"
PERFORMER "Ray Barretto and New World Spirit"
TITLE "Contact!"
FILE "CdImage.flac" WAVE
TRACK 01 AUDIO
TITLE "Moss Code"
PERFORMER "Ray Barretto and New World Spirit"
INDEX 01 00:00:00
TRACK 02 AUDIO
TITLE "Caravan"
PERFORMER "Ray Barretto and New World Spirit"
INDEX 01 03:41:30
TRACK 03 AUDIO
TITLE "Serenata"
PERFORMER "Ray Barretto and New World Spirit"
INDEX 01 10:56:00
TRACK 04 AUDIO
TITLE "Dance of Denial"
PERFORMER "Ray Barretto and New World Spirit"
INDEX 01 17:39:47
TRACK 05 AUDIO
TITLE "Poinciana"
PERFORMER "Ray Barretto and New World Spirit"
INDEX 01 23:31:22
TRACK 06 AUDIO
TITLE "Point of Contact (Punto de Contacto)"
PERFORMER "Ray Barretto and New World Spirit"
INDEX 00 30:06:16
INDEX 01 30:06:17
TRACK 07 AUDIO
TITLE "La Bendicion"
PERFORMER "Ray Barretto and New World Spirit"
INDEX 01 36:06:42
TRACK 08 AUDIO
TITLE "Liberated Spirit"
PERFORMER "Ray Barretto and New World Spirit"
INDEX 01 41:50:57
TRACK 09 AUDIO
TITLE "The Summer Knows"
PERFORMER "Ray Barretto and New World Spirit"
INDEX 01 47:22:72
TRACK 10 AUDIO
TITLE "Sister Sadie"
PERFORMER "Ray Barretto and New World Spirit"
INDEX 01 53:35:35
05:16
369
Нет комментариев. Ваш будет первым!