Поиск

(Afro-Cuban Jazz, Latin Jazz, World Fusion) [CD] Chucho Valdes - Border-Free - 2013, FLAC (tracks+.cue), lossless

(Afro-Cuban Jazz, Latin Jazz, World Fusion) [CD] Chucho Valdes - Border-Free - 2013, FLAC (tracks+.cue), lossless
Треклист:
Chucho Valdés - Border-Free Жанр: Afro-Cuban Jazz, Latin Jazz, World Fusion
Носитель: CD
Год издания: 2013
Издатель (лейбл): Jazz Village
Номер по каталогу: JV 570016
Аудиокодек: FLAC (*.flac)
Тип рипа: tracks+.cue
Битрейт аудио: lossless
Продолжительность: 70:51
Rip by tdelyon
Наличие сканов в содержимом раздачи: да
Треклист:
01. Congadanza (9:11)
02. Caridad Amaro (6:29)
03. Tabú (9:49)
04. Bebo (7:49)
05. Afro-Comanche (11:57)
06. Pilar (10:05)
07. Santa Cruz (6:25)
08. Abdel (9:07)
Personnel:
Chucho Valdés - piano
Reinaldo Melián Alvarez - trumpet
Dreiser Durruthy Bombalé - bátas, lead vocals
Ángel Gastón Joya Perellada - bass, vocals
Rodney Barreto Illarza - drums, vocals
Yarodly Abreu Robles - percussion, vocals
Branford Marsalis - tenor sax (3, 4), soprano sax (8)
 
 
Лог создания рипа
Exact Audio Copy V1.0 beta 3 from 29. August 2011
EAC extraction logfile from 15. July 2016, 13:10
Chucho Valdés / Border-Free
Used drive : hp DVD-RAM GHB0N Adapter: 0 ID: 0
Read mode : Secure
Utilize accurate stream : Yes
Defeat audio cache : Yes
Make use of C2 pointers : No
Read offset correction : 6
Overread into Lead-In and Lead-Out : No
Fill up missing offset samples with silence : Yes
Delete leading and trailing silent blocks : No
Null samples used in CRC calculations : Yes
Used interface : Native Win32 interface for Win NT & 2000
Gap handling : Appended to previous track
Used output format : User Defined Encoder
Selected bitrate : 1024 kBit/s
Quality : High
Add ID3 tag : No
Command line compressor : C:\Program Files (x86)\Exact Audio Copy\FLAC\FLAC.EXE
Additional command line options : -8 -V -T "ARTIST=%artist%" -T "TITLE=%title%" -T "ALBUM=%albumtitle%" -T "DATE=%year%" -T "TRACKNUMBER=%tracknr%" -T "TOTALTRACKS=%numtracks%" -T "GENRE=%genre%" -T "ALBUM ARTIST=%albumartist%" -T "ALBUMARTIST=%albumartist%" -T "COMMENT=EAC V1.0 beta 3, Secure Mode, Test & Copy, AccurateRip, FLAC -8" %source%
TOC of the extracted CD
Track | Start | Length | Start sector | End sector
---------------------------------------------------------
1 | 0:00.00 | 9:11.30 | 0 | 41354
2 | 9:11.30 | 6:29.24 | 41355 | 70553
3 | 15:40.54 | 9:48.62 | 70554 | 114715
4 | 25:29.41 | 7:48.46 | 114716 | 149861
5 | 33:18.12 | 11:56.48 | 149862 | 203609
6 | 45:14.60 | 10:04.70 | 203610 | 248979
7 | 55:19.55 | 6:25.00 | 248980 | 277854
8 | 61:44.55 | 9:06.50 | 277855 | 318854
Track 1
Filename C:\Users\Maison\Downloads\Rips\01 - Congadanza.wav
Pre-gap length 0:00:02.00
Peak level 98.5 %
Extraction speed 2.3 X
Track quality 100.0 %
Test CRC 25766BEF
Copy CRC 25766BEF
Accurately ripped (confidence 17) [E6C59A8B] (AR v2)
Copy OK
Track 2
Filename C:\Users\Maison\Downloads\Rips\02 - Caridad Amaro.wav
Peak level 97.8 %
Extraction speed 2.6 X
Track quality 100.0 %
Test CRC 3A7AFF8E
Copy CRC 3A7AFF8E
Accurately ripped (confidence 18) [DA728BAE] (AR v2)
Copy OK
Track 3
Filename C:\Users\Maison\Downloads\Rips\03 - Tabú.wav
Peak level 98.7 %
Extraction speed 3.0 X
Track quality 100.0 %
Test CRC CF7A2D1F
Copy CRC CF7A2D1F
Accurately ripped (confidence 18) [40ECFBD3] (AR v2)
Copy OK
Track 4
Filename C:\Users\Maison\Downloads\Rips\04 - Bebo.wav
Peak level 98.4 %
Extraction speed 3.3 X
Track quality 100.0 %
Test CRC 30878C24
Copy CRC 30878C24
Accurately ripped (confidence 18) [40995250] (AR v2)
Copy OK
Track 5
Filename C:\Users\Maison\Downloads\Rips\05 - Afro-Comanche.wav
Peak level 99.3 %
Extraction speed 3.7 X
Track quality 100.0 %
Test CRC 826F49A2
Copy CRC 826F49A2
Accurately ripped (confidence 18) [213DC1AA] (AR v2)
Copy OK
Track 6
Filename C:\Users\Maison\Downloads\Rips\06 - Pilar.wav
Peak level 97.7 %
Extraction speed 4.0 X
Track quality 100.0 %
Test CRC B0142EBF
Copy CRC B0142EBF
Accurately ripped (confidence 18) [5B6C1BAD] (AR v2)
Copy OK
Track 7
Filename C:\Users\Maison\Downloads\Rips\07 - Santa Cruz.wav
Peak level 100.0 %
Extraction speed 4.1 X
Track quality 100.0 %
Test CRC 0DA71B2E
Copy CRC 0DA71B2E
Accurately ripped (confidence 18) [E54EF0A8] (AR v2)
Copy OK
Track 8
Filename C:\Users\Maison\Downloads\Rips\08 - Abdel.wav
Peak level 98.3 %
Extraction speed 4.4 X
Track quality 100.0 %
Test CRC 20A2E51D
Copy CRC 20A2E51D
Accurately ripped (confidence 18) [4FBC4262] (AR v2)
Copy OK
All tracks accurately ripped
No errors occurred
End of status report
==== Log checksum 59582B19E168724151EB3B43D1650FC9AA632592DDB653C9F54DAE3E1F2EB74C ====
 
Содержание индексной карты (.CUE)
REM GENRE Jazz
REM DATE 2013
REM DISCID 53109B08
REM COMMENT "ExactAudioCopy v1.0b3"
PERFORMER "Chucho Valdés"
TITLE "Border-Free"
FILE "01 - Congadanza.wav" WAVE
TRACK 01 AUDIO
TITLE "Congadanza"
PERFORMER "Chucho Valdés"
INDEX 01 00:00:00
FILE "02 - Caridad Amaro.wav" WAVE
TRACK 02 AUDIO
TITLE "Caridad Amaro"
PERFORMER "Chucho Valdés"
INDEX 01 00:00:00
FILE "03 - Tabú.wav" WAVE
TRACK 03 AUDIO
TITLE "Tabú"
PERFORMER "Chucho Valdés"
INDEX 01 00:00:00
FILE "04 - Bebo.wav" WAVE
TRACK 04 AUDIO
TITLE "Bebo"
PERFORMER "Chucho Valdés"
INDEX 01 00:00:00
FILE "05 - Afro-Comanche.wav" WAVE
TRACK 05 AUDIO
TITLE "Afro-Comanche"
PERFORMER "Chucho Valdés"
INDEX 01 00:00:00
FILE "06 - Pilar.wav" WAVE
TRACK 06 AUDIO
TITLE "Pilar"
PERFORMER "Chucho Valdés"
INDEX 01 00:00:00
FILE "07 - Santa Cruz.wav" WAVE
TRACK 07 AUDIO
TITLE "Santa Cruz"
PERFORMER "Chucho Valdés"
INDEX 01 00:00:00
FILE "08 - Abdel.wav" WAVE
TRACK 08 AUDIO
TITLE "Abdel"
PERFORMER "Chucho Valdés"
INDEX 01 00:00:00
22:40
265
Нет комментариев. Ваш будет первым!