Поиск

(Contemporary Jazz, World Fusion, Latin) [CD] Esperanza Spalding - Emily’s D + Evolution - 2016, FLAC (tracks+.cue), lossless

(Contemporary Jazz, World Fusion, Latin) [CD] Esperanza Spalding - Emily’s D + Evolution - 2016, FLAC (tracks+.cue), lossless
Треклист:
Esperanza Spalding - Emily’s D + Evolution Жанр: Contemporary Jazz, World Fusion, Latin
Носитель: CD
Год издания: 2016
Издатель (лейбл): Concord Records
Номер по каталогу: CRE-39146
Аудиокодек: FLAC (*.flac)
Тип рипа: tracks+.cue
Битрейт аудио: lossless
Продолжительность: 59:27
Rip by tdelyon
Наличие сканов в содержимом раздачи: да
Треклист:
01. Good Lava (3:38)
02. Unconditional Love (3:46)
03. Judas (4:11)
04. Earth to Heaven (3:52)
05. One (3:15)
06. Rest in Pleasure (4:59)
07. Ebony and Ivy (4:23)
08. Noble Nobles (3:34)
09. Farewell Dolly (2:08)
10. Elevate or Operate (4:04)
11. Funk the Fear (5:07)
12. I Want It Now (2:53)
13. Change Us (3:57)
14. Unconditional Love (Alternate Version) (9:40)
Personnel:
Esperanza Spalding - b (1-11, 13, 14), vo
Justin Tyson (1, 6, 11, 12, 14), Karriem Riggins (2-5, 7, 8, 10, 12, 13) - d
Corey King (1, 2, 5-7, 12-14), Emily Elbert (1, 6, 12, 14), Nadia Washington (2, 5, 7, 13) - back-voc
Matthew Stevens - g (2)
 
 
Лог создания рипа
Exact Audio Copy V1.0 beta 3 from 29. August 2011
EAC extraction logfile from 3. March 2016, 13:05
Esperanza Spalding / Emily’s D + Evolution
Used drive : hp DVD-RAM GHB0N Adapter: 0 ID: 0
Read mode : Secure
Utilize accurate stream : Yes
Defeat audio cache : Yes
Make use of C2 pointers : No
Read offset correction : 6
Overread into Lead-In and Lead-Out : No
Fill up missing offset samples with silence : Yes
Delete leading and trailing silent blocks : No
Null samples used in CRC calculations : Yes
Used interface : Native Win32 interface for Win NT & 2000
Gap handling : Appended to previous track
Used output format : User Defined Encoder
Selected bitrate : 1024 kBit/s
Quality : High
Add ID3 tag : No
Command line compressor : C:\Program Files (x86)\Exact Audio Copy\FLAC\FLAC.EXE
Additional command line options : -8 -V -T "ARTIST=%artist%" -T "TITLE=%title%" -T "ALBUM=%albumtitle%" -T "DATE=%year%" -T "TRACKNUMBER=%tracknr%" -T "TOTALTRACKS=%numtracks%" -T "GENRE=%genre%" -T "ALBUM ARTIST=%albumartist%" -T "ALBUMARTIST=%albumartist%" -T "COMMENT=EAC V1.0 beta 3, Secure Mode, Test & Copy, AccurateRip, FLAC -8" %source%
TOC of the extracted CD
Track | Start | Length | Start sector | End sector
---------------------------------------------------------
1 | 0:00.00 | 3:38.08 | 0 | 16357
2 | 3:38.08 | 3:46.33 | 16358 | 33340
3 | 7:24.41 | 4:10.49 | 33341 | 52139
4 | 11:35.15 | 3:52.11 | 52140 | 69550
5 | 15:27.26 | 3:15.16 | 69551 | 84191
6 | 18:42.42 | 4:59.01 | 84192 | 106617
7 | 23:41.43 | 4:23.27 | 106618 | 126369
8 | 28:04.70 | 3:33.55 | 126370 | 142399
9 | 31:38.50 | 2:07.38 | 142400 | 151962
10 | 33:46.13 | 4:03.38 | 151963 | 170225
11 | 37:49.51 | 5:07.07 | 170226 | 193257
12 | 42:56.58 | 2:53.06 | 193258 | 206238
13 | 45:49.64 | 3:57.30 | 206239 | 224043
14 | 49:47.19 | 9:39.44 | 224044 | 267512
Track 1
Filename C:\Users\Maison\Downloads\Rips\01 - Good Lava.wav
Pre-gap length 0:00:02.00
Peak level 99.7 %
Extraction speed 1.3 X
Track quality 99.9 %
Test CRC A32C964E
Copy CRC A32C964E
Track not present in AccurateRip database
Copy OK
Track 2
Filename C:\Users\Maison\Downloads\Rips\02 - Unconditional Love.wav
Pre-gap length 0:00:00.17
Peak level 100.0 %
Extraction speed 1.9 X
Track quality 100.0 %
Test CRC 01FF1CE6
Copy CRC 01FF1CE6
Track not present in AccurateRip database
Copy OK
Track 3
Filename C:\Users\Maison\Downloads\Rips\03 - Judas.wav
Peak level 100.0 %
Extraction speed 1.6 X
Track quality 99.9 %
Test CRC 185CDBD0
Copy CRC 185CDBD0
Track not present in AccurateRip database
Copy OK
Track 4
Filename C:\Users\Maison\Downloads\Rips\04 - Earth to Heaven.wav
Pre-gap length 0:00:01.10
Peak level 100.0 %
Extraction speed 2.3 X
Track quality 100.0 %
Test CRC A08A80D7
Copy CRC A08A80D7
Track not present in AccurateRip database
Copy OK
Track 5
Filename C:\Users\Maison\Downloads\Rips\05 - One.wav
Pre-gap length 0:00:02.21
Peak level 100.0 %
Extraction speed 1.7 X
Track quality 99.9 %
Test CRC 29C81C45
Copy CRC 29C81C45
Track not present in AccurateRip database
Copy OK
Track 6
Filename C:\Users\Maison\Downloads\Rips\06 - Rest in Pleasure.wav
Peak level 98.7 %
Extraction speed 2.7 X
Track quality 100.0 %
Test CRC 5071995A
Copy CRC 5071995A
Track not present in AccurateRip database
Copy OK
Track 7
Filename C:\Users\Maison\Downloads\Rips\07 - Ebony and Ivy.wav
Pre-gap length 0:00:01.62
Peak level 100.0 %
Extraction speed 2.8 X
Track quality 100.0 %
Test CRC 4365461F
Copy CRC 4365461F
Track not present in AccurateRip database
Copy OK
Track 8
Filename C:\Users\Maison\Downloads\Rips\08 - Noble Nobles.wav
Pre-gap length 0:00:02.65
Peak level 100.0 %
Extraction speed 2.8 X
Track quality 100.0 %
Test CRC 34D5EDD4
Copy CRC 34D5EDD4
Track not present in AccurateRip database
Copy OK
Track 9
Filename C:\Users\Maison\Downloads\Rips\09 - Farewell Dolly.wav
Pre-gap length 0:00:01.73
Peak level 97.0 %
Extraction speed 2.6 X
Track quality 100.0 %
Test CRC 2176A763
Copy CRC 2176A763
Track not present in AccurateRip database
Copy OK
Track 10
Filename C:\Users\Maison\Downloads\Rips\10 - Elevate or Operate.wav
Peak level 100.0 %
Extraction speed 3.1 X
Track quality 100.0 %
Test CRC C862EF7A
Copy CRC C862EF7A
Track not present in AccurateRip database
Copy OK
Track 11
Filename C:\Users\Maison\Downloads\Rips\11 - Funk the Fear.wav
Peak level 98.9 %
Extraction speed 2.6 X
Track quality 99.9 %
Test CRC 3956A28B
Copy CRC 3956A28B
Track not present in AccurateRip database
Copy OK
Track 12
Filename C:\Users\Maison\Downloads\Rips\12 - I Want It Now.wav
Pre-gap length 0:00:02.71
Peak level 96.8 %
Extraction speed 3.1 X
Track quality 100.0 %
Test CRC 2BC1B177
Copy CRC 2BC1B177
Track not present in AccurateRip database
Copy OK
Track 13
Filename C:\Users\Maison\Downloads\Rips\13 - Change Us.wav
Pre-gap length 0:00:01.52
Peak level 100.0 %
Extraction speed 2.5 X
Track quality 99.9 %
Test CRC B3448207
Copy CRC B3448207
Track not present in AccurateRip database
Copy OK
Track 14
Filename C:\Users\Maison\Downloads\Rips\14 - Unconditional Love (Alternate Version).wav
Pre-gap length 0:00:00.42
Peak level 99.4 %
Extraction speed 3.9 X
Track quality 100.0 %
Test CRC 42F91EDB
Copy CRC 42F91EDB
Track not present in AccurateRip database
Copy OK
None of the tracks are present in the AccurateRip database
No errors occurred
End of status report
==== Log checksum 708B85C73E7999D863C884210C55E5A4B2580DFAEC578970C3B27B3943612EB3 ====
 
Содержание индексной карты (.CUE)
REM GENRE Jazz
REM DATE 2016
REM DISCID C80DEE0E
REM COMMENT "ExactAudioCopy v1.0b3"
PERFORMER "Esperanza Spalding"
TITLE "Emily’s D + Evolution"
FILE "01 - Good Lava.wav" WAVE
TRACK 01 AUDIO
TITLE "Good Lava"
PERFORMER "Esperanza Spalding"
FLAGS DCP
INDEX 01 00:00:00
TRACK 02 AUDIO
TITLE "Unconditional Love"
PERFORMER "Esperanza Spalding"
FLAGS DCP
INDEX 00 03:37:66
FILE "02 - Unconditional Love.wav" WAVE
INDEX 01 00:00:00
FILE "03 - Judas.wav" WAVE
TRACK 03 AUDIO
TITLE "Judas"
PERFORMER "Esperanza Spalding"
FLAGS DCP
INDEX 01 00:00:00
TRACK 04 AUDIO
TITLE "Earth to Heaven"
PERFORMER "Esperanza Spalding"
FLAGS DCP
INDEX 00 04:09:39
FILE "04 - Earth to Heaven.wav" WAVE
INDEX 01 00:00:00
TRACK 05 AUDIO
TITLE "One"
PERFORMER "Esperanza Spalding"
FLAGS DCP
INDEX 00 03:49:65
FILE "05 - One.wav" WAVE
INDEX 01 00:00:00
FILE "06 - Rest in Pleasure.wav" WAVE
TRACK 06 AUDIO
TITLE "Rest in Pleasure"
PERFORMER "Esperanza Spalding"
FLAGS DCP
INDEX 01 00:00:00
TRACK 07 AUDIO
TITLE "Ebony and Ivy"
PERFORMER "Esperanza Spalding"
FLAGS DCP
INDEX 00 04:57:14
FILE "07 - Ebony and Ivy.wav" WAVE
INDEX 01 00:00:00
TRACK 08 AUDIO
TITLE "Noble Nobles"
PERFORMER "Esperanza Spalding"
FLAGS DCP
INDEX 00 04:20:37
FILE "08 - Noble Nobles.wav" WAVE
INDEX 01 00:00:00
TRACK 09 AUDIO
TITLE "Farewell Dolly"
PERFORMER "Esperanza Spalding"
FLAGS DCP
INDEX 00 03:31:57
FILE "09 - Farewell Dolly.wav" WAVE
INDEX 01 00:00:00
FILE "10 - Elevate or Operate.wav" WAVE
TRACK 10 AUDIO
TITLE "Elevate or Operate"
PERFORMER "Esperanza Spalding"
FLAGS DCP
INDEX 01 00:00:00
FILE "11 - Funk the Fear.wav" WAVE
TRACK 11 AUDIO
TITLE "Funk the Fear"
PERFORMER "Esperanza Spalding"
FLAGS DCP
INDEX 01 00:00:00
TRACK 12 AUDIO
TITLE "I Want It Now"
PERFORMER "Esperanza Spalding"
FLAGS DCP
INDEX 00 05:04:11
FILE "12 - I Want It Now.wav" WAVE
INDEX 01 00:00:00
TRACK 13 AUDIO
TITLE "Change Us"
PERFORMER "Esperanza Spalding"
FLAGS DCP
INDEX 00 02:51:29
FILE "13 - Change Us.wav" WAVE
INDEX 01 00:00:00
TRACK 14 AUDIO
TITLE "Unconditional Love (Alternate Version)"
PERFORMER "Esperanza Spalding"
FLAGS DCP
INDEX 00 03:56:63
FILE "14 - Unconditional Love (Alternate Version).wav" WAVE
INDEX 01 00:00:00
22:39
295
Нет комментариев. Ваш будет первым!