Поиск

(Brazilian Jazz, Bossa Nova, Vocal Jazz) [CD] Joyce (Joyce Silveira Moreno) - Feminina (1980) - 2016, FLAC (tracks+.cue), lossless

(Brazilian Jazz, Bossa Nova, Vocal Jazz) [CD] Joyce (Joyce Silveira Moreno) - Feminina (1980) - 2016, FLAC (tracks+.cue), lossless
Треклист:
Joyce - Feminina (1980) Жанр: Brazilian Jazz, Bossa Nova, Vocal Jazz
Носитель: CD
Страна-производитель диска: Japan
Год издания: 2016
Издатель (лейбл): EMI Music/Universal Japan
Номер по каталогу: UICY- 76389
Аудиокодек: FLAC (*.flac)
Тип рипа: tracks+.cue
Битрейт аудио: lossless
Продолжительность: 34:41
Источник (релизер): ruskaval
Наличие сканов в содержимом раздачи: да
Треклист:
01. Feminina (3:48)
02. Mistérios (4:33)
03. Clareana (2:51)
04. Banana (4:17)
05. Revendo amigos (3:21)
06. Essa mulher (3:33)
07. Coração de crianca (3:14)
08. Da cor brasileira (2:12)
09. Aldeia de Ogum (4:34)
10. Compor (2:18)
 
 
Лог создания рипа
Exact Audio Copy V1.1 from 23. June 2015
EAC extraction logfile from 17. October 2016, 22:30
Joyce / Feminina
Used drive : ASUS BW-12B1ST a Adapter: 1 ID: 0
Read mode : Secure
Utilize accurate stream : Yes
Defeat audio cache : Yes
Make use of C2 pointers : No
Read offset correction : 6
Overread into Lead-In and Lead-Out : No
Fill up missing offset samples with silence : Yes
Delete leading and trailing silent blocks : No
Null samples used in CRC calculations : Yes
Used interface : Native Win32 interface for Win NT & 2000
Gap handling : Appended to previous track
Used output format : User Defined Encoder
Selected bitrate : 1024 kBit/s
Quality : High
Add ID3 tag : No
Command line compressor : C:\Program Files (x86)\Exact Audio Copy\Flac\flac.exe
Additional command line options : -8 -V -T "ARTIST=%artist%" -T "TITLE=%title%" -T "ALBUM=%albumtitle%" -T "DATE=%year%" -T "TRACKNUMBER=%tracknr%" -T "TOTALTRACKS=%numtracks%" -T "GENRE=%genre%" -T "ALBUMARTIST=%albumartist%" -T "ALBUM ARTIST=%albumartist%" -T "COMMENT=EAC Secure Mode, Test & Copy, AccurateRip, FLAC -8" %source%
TOC of the extracted CD
Track | Start | Length | Start sector | End sector
---------------------------------------------------------
1 | 0:00.00 | 3:48.35 | 0 | 17134
2 | 3:48.35 | 4:32.50 | 17135 | 37584
3 | 8:21.10 | 2:50.70 | 37585 | 50404
4 | 11:12.05 | 4:16.62 | 50405 | 69666
5 | 15:28.67 | 3:20.73 | 69667 | 84739
6 | 18:49.65 | 3:32.67 | 84740 | 100706
7 | 22:22.57 | 3:13.50 | 100707 | 115231
8 | 25:36.32 | 2:12.18 | 115232 | 125149
9 | 27:48.50 | 4:34.30 | 125150 | 145729
10 | 32:23.05 | 2:17.73 | 145730 | 156077
Track 1
Filename L:\01 - Feminina.wav
Pre-gap length 0:00:02.00
Peak level 100.0 %
Extraction speed 3.7 X
Track quality 100.0 %
Test CRC 2DAF3E92
Copy CRC 2DAF3E92
Accurately ripped (confidence 2) [B5ED0250] (AR v2)
Copy OK
Track 2
Filename L:\02 - Misterios.wav
Pre-gap length 0:00:01.50
Peak level 99.7 %
Extraction speed 2.8 X
Track quality 100.0 %
Test CRC A1F4D0ED
Copy CRC A1F4D0ED
Accurately ripped (confidence 2) [F2AAB5FD] (AR v2)
Copy OK
Track 3
Filename L:\03 - Clareana.wav
Pre-gap length 0:00:01.48
Peak level 100.0 %
Extraction speed 2.1 X
Track quality 100.0 %
Test CRC 737AE390
Copy CRC 737AE390
Accurately ripped (confidence 2) [EAD79615] (AR v2)
Copy OK
Track 4
Filename L:\04 - Banana.wav
Pre-gap length 0:00:01.50
Peak level 99.9 %
Extraction speed 1.3 X
Track quality 100.0 %
Test CRC F6137469
Copy CRC F6137469
Accurately ripped (confidence 2) [B5A798C2] (AR v2)
Copy OK
Track 5
Filename L:\05 - Revendo amigos.wav
Pre-gap length 0:00:01.50
Peak level 99.9 %
Extraction speed 1.4 X
Track quality 100.0 %
Test CRC FF383B7A
Copy CRC FF383B7A
Accurately ripped (confidence 2) [C0F8FC38] (AR v2)
Copy OK
Track 6
Filename L:\06 - Essa mulher.wav
Pre-gap length 0:00:01.48
Peak level 99.9 %
Extraction speed 1.4 X
Track quality 100.0 %
Test CRC 312AF445
Copy CRC 312AF445
Accurately ripped (confidence 2) [6380931A] (AR v2)
Copy OK
Track 7
Filename L:\07 - Coracao de crianca.wav
Pre-gap length 0:00:01.47
Peak level 100.0 %
Extraction speed 1.5 X
Track quality 100.0 %
Test CRC 719D891C
Copy CRC 719D891C
Accurately ripped (confidence 2) [A1FFB1F0] (AR v2)
Copy OK
Track 8
Filename L:\08 - Da cor brasileira.wav
Pre-gap length 0:00:01.50
Peak level 99.9 %
Extraction speed 1.4 X
Track quality 100.0 %
Test CRC 32A7A39B
Copy CRC 32A7A39B
Accurately ripped (confidence 2) [1519A85F] (AR v2)
Copy OK
Track 9
Filename L:\09 - Aldeia de Ogum.wav
Pre-gap length 0:00:01.50
Peak level 99.9 %
Extraction speed 1.7 X
Track quality 100.0 %
Test CRC 94795BB2
Copy CRC 94795BB2
Accurately ripped (confidence 2) [F19A38BA] (AR v2)
Copy OK
Track 10
Filename L:\10 - Compor.wav
Pre-gap length 0:00:01.48
Peak level 99.9 %
Extraction speed 1.6 X
Track quality 100.0 %
Test CRC B9123156
Copy CRC B9123156
Accurately ripped (confidence 2) [749BD0C8] (AR v2)
Copy OK
All tracks accurately ripped
No errors occurred
End of status report
---- CUETools DB Plugin V2.1.6
[CTDB TOCID: fPn0QwzyKKBASY7o.5uXI5nren4-] found
Submit result: fPn0QwzyKKBASY7o.5uXI5nren4- has been confirmed
Track | CTDB Status
1 | (4/4) Accurately ripped
2 | (4/4) Accurately ripped
3 | (4/4) Accurately ripped
4 | (4/4) Accurately ripped
5 | (4/4) Accurately ripped
6 | (4/4) Accurately ripped
7 | (4/4) Accurately ripped
8 | (4/4) Accurately ripped
9 | (4/4) Accurately ripped
10 | (4/4) Accurately ripped
==== Log checksum 9FCE08FF8468520256041F0383CD52778805D23C590E92353957F19E8D4816A1 ====
 
Содержание индексной карты (.CUE)
REM GENRE MPB
REM DATE 1980
REM DISCID 7008210A
REM COMMENT "ExactAudioCopy v1.1"
PERFORMER "Joyce"
TITLE "Feminina"
FILE "01 - Feminina.wav" WAVE
TRACK 01 AUDIO
TITLE "Feminina"
PERFORMER "Joyce"
INDEX 01 00:00:00
TRACK 02 AUDIO
TITLE "Mistérios"
PERFORMER "Joyce"
INDEX 00 03:46:60
FILE "02 - Misterios.wav" WAVE
INDEX 01 00:00:00
TRACK 03 AUDIO
TITLE "Clareana"
PERFORMER "Joyce"
INDEX 00 04:31:02
FILE "03 - Clareana.wav" WAVE
INDEX 01 00:00:00
TRACK 04 AUDIO
TITLE "Banana"
PERFORMER "Joyce"
INDEX 00 02:49:20
FILE "04 - Banana.wav" WAVE
INDEX 01 00:00:00
TRACK 05 AUDIO
TITLE "Revendo amigos"
PERFORMER "Joyce"
INDEX 00 04:15:12
FILE "05 - Revendo amigos.wav" WAVE
INDEX 01 00:00:00
TRACK 06 AUDIO
TITLE "Essa mulher"
PERFORMER "Joyce"
INDEX 00 03:19:25
FILE "06 - Essa mulher.wav" WAVE
INDEX 01 00:00:00
TRACK 07 AUDIO
TITLE "Coração de crianca"
PERFORMER "Joyce"
INDEX 00 03:31:20
FILE "07 - Coracao de crianca.wav" WAVE
INDEX 01 00:00:00
TRACK 08 AUDIO
TITLE "Da cor brasileira"
PERFORMER "Joyce"
INDEX 00 03:12:00
FILE "08 - Da cor brasileira.wav" WAVE
INDEX 01 00:00:00
TRACK 09 AUDIO
TITLE "Aldeia de Ogum"
PERFORMER "Joyce"
INDEX 00 02:10:43
FILE "09 - Aldeia de Ogum.wav" WAVE
INDEX 01 00:00:00
TRACK 10 AUDIO
TITLE "Compor"
PERFORMER "Joyce"
INDEX 00 04:32:57
FILE "10 - Compor.wav" WAVE
INDEX 01 00:00:00
 
Об альбоме (сборнике)
Feminina, with its infusion of samba and jazz into a palate of jubilant traditional folk, celebrates being a woman; as well as being Brazilian. It’s an ode to the souls and the intellect hidden away by failed governments and their over zealous censorship. The quick, merry acoustic guitar of the opening title song warms us to Joyce’s cause. There is the sweetest plea in her voice as she asks “O mao/Me explica/Me ensina/Me diz/O que e feminine (Oh mother/Explain to me/Teach me/Tell me/What is a woman).”ќ All the while flutes and a Latin rhythm section climb and fall like gulls above the ocean. “Banana”ќ and “Aldeia de ogum”ќ continue in this vain with thrilling cascades of Joyce’s vocals and frenetic strum patterns. The album’s centerpiece, however, is the thoroughly enchanting, “Clareana.”ќ Written as a lullaby for her two daughters, (Clara and Ana) the song wisps and soars with Joyce’s idiosyncratic gentleness. It’s easy to imagine Joyce sitting at the side of her daughter’s bed, lightly stroking her hairs telling her, “No sol de manha/Novelo de la/No ventre de mae/Bate o coracao de Clara, Ana (The morning sun/A ball of yarn/In the mother’s womb/It beats like the heart of Clara, Ana).”
Upon the release of Feminina, Joyce was already an accomplished musician, playing in bands since the mid 1970’s and having performed with such stars as Gal Costa and Vinicius de Moaes. To say that she adopted elements of jazz, bossa, samba, and blues into her bare acoustic melodies would be a gross miscue. Instead, she bore these styles into something new. For this reason Feminina, as well as many of her other albums retain a fresh identity; undergoing a perpetual evolution and never aspiring to record anything static and crystalline. In 1985, the moribund military government of Brazil was voted out of power. Democracy returned and Brazilian’s could be left again to collectively determine the course of their country. As a rich culture heritage re-emerged to the world so did the carioca singer, Joyce.
22:41
253
Нет комментариев. Ваш будет первым!