Поиск

(Afro-Cuban Jazz, Cool, Latin Jazz) [CD] Cal Tjader - Agua Dulce - 1971 (2011), FLAC (tracks+.cue), lossless

(Afro-Cuban Jazz, Cool, Latin Jazz) [CD] Cal Tjader - Agua Dulce - 1971 (2011), FLAC (tracks+.cue), lossless
Cal Tjader - Agua Dulce
Жанр: Afro-Cuban Jazz, Cool, Latin Jazz
Носитель: CD
Страна-производитель диска (релиза): Великобритания
Год издания: 1971 (2011)
Издатель (лейбл): BGP Records
Номер по каталогу: CDBGPM 243
Аудиокодек: FLAC (*.flac)
Тип рипа: tracks+.cue
Битрейт аудио: lossless
Продолжительность: 35:13
Источник (релизер): ArcticBlast
Наличие сканов в содержимом раздачи: нет
Треклист:
01. Agua Dulce (Cool-Ade) (4:08)
02. Curacao (5:38)
03. Somewhere in the Night (4:25)
04. Gimme Shelter (2:55)
05. Ran Kan Kan (3:02)
06. Descarga (3:05)
07. Invitation (3:04)
08. Now (5:28)
09. Morning (3:28)
 
Лог создания рипа
X Lossless Decoder version 20161007 (149.3)
XLD extraction logfile from 2017-05-19 21:36:55 -0400
Cal Tjader / Agua Dulce
Used drive : HL-DT-ST DVD-RW GH41N (revision PQ05)
Media type : Pressed CD
Ripper mode : XLD Secure Ripper
Disable audio cache : OK for the drive with a cache less than 1375KiB
Make use of C2 pointers : NO
Read offset correction : 667
Max retry count : 100
Gap status : Analyzed, Appended (except HTOA)
TOC of the extracted CD
Track | Start | Length | Start sector | End sector
---------------------------------------------------------
1 | 00:00:00 | 04:07:59 | 0 | 18583
2 | 04:07:59 | 05:37:68 | 18584 | 43926
3 | 09:45:52 | 04:25:04 | 43927 | 63805
4 | 14:10:56 | 02:54:62 | 63806 | 76917
5 | 17:05:43 | 03:02:08 | 76918 | 90575
6 | 20:07:51 | 03:05:28 | 90576 | 104478
7 | 23:13:04 | 03:04:16 | 104479 | 118294
8 | 26:17:20 | 05:27:48 | 118295 | 142867
9 | 31:44:68 | 03:28:21 | 142868 | 158488
AccurateRip Summary (DiscID: 000c7b16-005a095b-82084109)
Track 01 : OK (v2, confidence 5/5)
Track 02 : OK (v2, confidence 5/5)
Track 03 : OK (v2, confidence 5/5)
Track 04 : OK (v2, confidence 5/5)
Track 05 : OK (v2, confidence 5/5)
Track 06 : OK (v2, confidence 5/5)
Track 07 : OK (v2, confidence 5/5)
Track 08 : OK (v2, confidence 5/5)
Track 09 : OK (v2, confidence 5/5)
->All tracks accurately ripped.
All Tracks
Album gain : -5.36 dB
Peak : 0.966156
Statistics
Read error : 0
Jitter error (maybe fixed) : 0
Retry sector count : 0
Damaged sector count : 0
Track 01
Filename : /Volumes/Data 2TB/XLD rips/Cal Tjader - Agua Dulce (2011) [FLAC]/01 - Agua Dulce (Cool-Ade).flac
Pre-gap length : 00:02:00
Track gain : -5.84 dB
Peak : 0.966156
CRC32 hash (test run) : 01E15610
CRC32 hash : 01E15610
CRC32 hash (skip zero) : 3706E500
AccurateRip v1 signature : 41ED104E
AccurateRip v2 signature : 7A27F67C
->Accurately ripped (v2, confidence 5/5)
Statistics
Read error : 0
Jitter error (maybe fixed) : 0
Retry sector count : 0
Damaged sector count : 0
Track 02
Filename : /Volumes/Data 2TB/XLD rips/Cal Tjader - Agua Dulce (2011) [FLAC]/02 - Curacao.flac
Pre-gap length : 00:01:73
Track gain : -5.94 dB
Peak : 0.966156
CRC32 hash (test run) : 44579E61
CRC32 hash : 44579E61
CRC32 hash (skip zero) : 3B892535
AccurateRip v1 signature : CF2BEEE5
AccurateRip v2 signature : A7D797F3
->Accurately ripped (v2, confidence 5/5)
Statistics
Read error : 0
Jitter error (maybe fixed) : 0
Retry sector count : 0
Damaged sector count : 0
Track 03
Filename : /Volumes/Data 2TB/XLD rips/Cal Tjader - Agua Dulce (2011) [FLAC]/03 - Somewhere in the Night.flac
Pre-gap length : 00:01:73
Track gain : -4.54 dB
Peak : 0.966095
CRC32 hash (test run) : CD9C2F0E
CRC32 hash : CD9C2F0E
CRC32 hash (skip zero) : ADF4E231
AccurateRip v1 signature : F4AD34CD
AccurateRip v2 signature : D759F5D1
->Accurately ripped (v2, confidence 5/5)
Statistics
Read error : 0
Jitter error (maybe fixed) : 0
Retry sector count : 0
Damaged sector count : 0
Track 04
Filename : /Volumes/Data 2TB/XLD rips/Cal Tjader - Agua Dulce (2011) [FLAC]/04 - Gimme Shelter.flac
Pre-gap length : 00:01:73
Track gain : -4.38 dB
Peak : 0.966125
CRC32 hash (test run) : 83CD7B46
CRC32 hash : 83CD7B46
CRC32 hash (skip zero) : 5D8AF21B
AccurateRip v1 signature : 9C6E70A6
AccurateRip v2 signature : 7C9C2174
->Accurately ripped (v2, confidence 5/5)
Statistics
Read error : 0
Jitter error (maybe fixed) : 0
Retry sector count : 0
Damaged sector count : 0
Track 05
Filename : /Volumes/Data 2TB/XLD rips/Cal Tjader - Agua Dulce (2011) [FLAC]/05 - Ran Kan Kan.flac
Pre-gap length : 00:01:73
Track gain : -5.63 dB
Peak : 0.966125
CRC32 hash (test run) : C1E3B735
CRC32 hash : C1E3B735
CRC32 hash (skip zero) : EFC126B5
AccurateRip v1 signature : 44738EC0
AccurateRip v2 signature : 362B244A
->Accurately ripped (v2, confidence 5/5)
Statistics
Read error : 0
Jitter error (maybe fixed) : 0
Retry sector count : 0
Damaged sector count : 0
Track 06
Filename : /Volumes/Data 2TB/XLD rips/Cal Tjader - Agua Dulce (2011) [FLAC]/06 - Descarga.flac
Pre-gap length : 00:01:73
Track gain : -4.39 dB
Peak : 0.966125
CRC32 hash (test run) : A15295A5
CRC32 hash : A15295A5
CRC32 hash (skip zero) : CB00C37E
AccurateRip v1 signature : 511989CF
AccurateRip v2 signature : 29E713F7
->Accurately ripped (v2, confidence 5/5)
Statistics
Read error : 0
Jitter error (maybe fixed) : 0
Retry sector count : 0
Damaged sector count : 0
Track 07
Filename : /Volumes/Data 2TB/XLD rips/Cal Tjader - Agua Dulce (2011) [FLAC]/07 - Invitation.flac
Pre-gap length : 00:01:73
Track gain : -3.21 dB
Peak : 0.966156
CRC32 hash (test run) : EAF86385
CRC32 hash : EAF86385
CRC32 hash (skip zero) : 4B9ABA1B
AccurateRip v1 signature : BC11A50E
AccurateRip v2 signature : 49E6EF52
->Accurately ripped (v2, confidence 5/5)
Statistics
Read error : 0
Jitter error (maybe fixed) : 0
Retry sector count : 0
Damaged sector count : 0
Track 08
Filename : /Volumes/Data 2TB/XLD rips/Cal Tjader - Agua Dulce (2011) [FLAC]/08 - Now.flac
Pre-gap length : 00:01:73
Track gain : -5.61 dB
Peak : 0.966156
CRC32 hash (test run) : EFA75065
CRC32 hash : EFA75065
CRC32 hash (skip zero) : 10ACFCF2
AccurateRip v1 signature : 6097F54A
AccurateRip v2 signature : E484ABBE
->Accurately ripped (v2, confidence 5/5)
Statistics
Read error : 0
Jitter error (maybe fixed) : 0
Retry sector count : 0
Damaged sector count : 0
Track 09
Filename : /Volumes/Data 2TB/XLD rips/Cal Tjader - Agua Dulce (2011) [FLAC]/09 - Morning.flac
Pre-gap length : 00:01:73
Track gain : -6.05 dB
Peak : 0.966125
CRC32 hash (test run) : 3D23F35A
CRC32 hash : 3D23F35A
CRC32 hash (skip zero) : E5261030
AccurateRip v1 signature : 52266BAB
AccurateRip v2 signature : 51AA7BE4
->Accurately ripped (v2, confidence 5/5)
Statistics
Read error : 0
Jitter error (maybe fixed) : 0
Retry sector count : 0
Damaged sector count : 0
No errors occurred
End of status report
-----BEGIN XLD SIGNATURE-----
RLPqYn842DDLUeXrFhCGYeEyJA0fI1KTzrWc_rqIZDePwtx1lNR1jmbG7njPS1AVp9.eGxJHyfiAFyfF.70kZcN2r6pA177H7wamJ6i
-----END XLD SIGNATURE-----
 
Содержание индексной карты (.CUE)
TITLE "Agua Dulce"
PERFORMER "Cal Tjader"
REM GENRE "Jazz"
REM DATE "1971"
REM DISCID 82084109
REM REPLAYGAIN_ALBUM_GAIN -5.36 dB
REM REPLAYGAIN_ALBUM_PEAK 0.966156
FILE "01 - Agua Dulce (Cool-Ade).flac" WAVE
TRACK 01 AUDIO
TITLE "Agua Dulce (Cool-Ade)"
ISRC GB03A1100946
REM REPLAYGAIN_TRACK_GAIN -5.84 dB
REM REPLAYGAIN_TRACK_PEAK 0.966156
INDEX 01 00:00:00
TRACK 02 AUDIO
TITLE "Curacao"
ISRC GB03A1100947
REM REPLAYGAIN_TRACK_GAIN -5.94 dB
REM REPLAYGAIN_TRACK_PEAK 0.966156
INDEX 00 04:05:61
FILE "02 - Curacao.flac" WAVE
INDEX 01 00:00:00
TRACK 03 AUDIO
TITLE "Somewhere in the Night"
ISRC GB03A1100948
REM REPLAYGAIN_TRACK_GAIN -4.54 dB
REM REPLAYGAIN_TRACK_PEAK 0.966095
INDEX 00 05:35:70
FILE "03 - Somewhere in the Night.flac" WAVE
INDEX 01 00:00:00
TRACK 04 AUDIO
TITLE "Gimme Shelter"
ISRC GB03A0921458
REM REPLAYGAIN_TRACK_GAIN -4.38 dB
REM REPLAYGAIN_TRACK_PEAK 0.966125
INDEX 00 04:23:06
FILE "04 - Gimme Shelter.flac" WAVE
INDEX 01 00:00:00
TRACK 05 AUDIO
TITLE "Ran Kan Kan"
ISRC GB03A0901139
REM REPLAYGAIN_TRACK_GAIN -5.63 dB
REM REPLAYGAIN_TRACK_PEAK 0.966125
INDEX 00 02:52:64
FILE "05 - Ran Kan Kan.flac" WAVE
INDEX 01 00:00:00
TRACK 06 AUDIO
TITLE "Descarga"
ISRC GB03A1100949
REM REPLAYGAIN_TRACK_GAIN -4.39 dB
REM REPLAYGAIN_TRACK_PEAK 0.966125
INDEX 00 03:00:10
FILE "06 - Descarga.flac" WAVE
INDEX 01 00:00:00
TRACK 07 AUDIO
TITLE "Invitation"
ISRC USFI85900091
REM REPLAYGAIN_TRACK_GAIN -3.21 dB
REM REPLAYGAIN_TRACK_PEAK 0.966156
INDEX 00 03:03:30
FILE "07 - Invitation.flac" WAVE
INDEX 01 00:00:00
TRACK 08 AUDIO
TITLE "Now"
ISRC GB03A1100950
REM REPLAYGAIN_TRACK_GAIN -5.61 dB
REM REPLAYGAIN_TRACK_PEAK 0.966156
INDEX 00 03:02:18
FILE "08 - Now.flac" WAVE
INDEX 01 00:00:00
TRACK 09 AUDIO
TITLE "Morning"
ISRC GB03A0918332
REM REPLAYGAIN_TRACK_GAIN -6.05 dB
REM REPLAYGAIN_TRACK_PEAK 0.966125
INDEX 00 05:25:50
FILE "09 - Morning.flac" WAVE
INDEX 01 00:00:00
 
Отчет CUETools
[CUETools log; Date: 18.07.2017 16:43:40; Version: 2.1.5]
[CTDB TOCID: LEEPuEt_u90mbOh30s8psZbH.Gk-] found.
Track | CTDB Status
1 | (8/8) Accurately ripped
2 | (8/8) Accurately ripped
3 | (8/8) Accurately ripped
4 | (8/8) Accurately ripped
5 | (8/8) Accurately ripped
6 | (8/8) Accurately ripped
7 | (8/8) Accurately ripped
8 | (8/8) Accurately ripped
9 | (8/8) Accurately ripped
[AccurateRip ID: 000c7b16-005a095b-82084109] found.
Track [ CRC | V2 ] Status
01 [41ed104e|7a27f67c] (0+5/5) Accurately ripped
02 [cf2beee5|a7d797f3] (0+5/5) Accurately ripped
03 [f4ad34cd|d759f5d1] (0+5/5) Accurately ripped
04 [9c6e70a6|7c9c2174] (0+5/5) Accurately ripped
05 [44738ec0|362b244a] (0+5/5) Accurately ripped
06 [511989cf|29e713f7] (0+5/5) Accurately ripped
07 [bc11a50e|49e6ef52] (0+5/5) Accurately ripped
08 [6097f54a|e484abbe] (0+5/5) Accurately ripped
09 [52266bab|51aa7be4] (0+5/5) Accurately ripped
Track Peak [ CRC32 ] [W/O NULL]
-- 96,6 [3224CFEB] [32B10C00]
01 96,6 [01E15610] [3706E500]
02 96,6 [44579E61] [3B892535]
03 96,6 [CD9C2F0E] [ADF4E231]
04 96,6 [83CD7B46] [5D8AF21B]
05 96,6 [C1E3B735] [EFC126B5]
06 96,6 [A15295A5] [CB00C37E]
07 96,6 [EAF86385] [4B9ABA1B]
08 96,6 [EFA75065] [10ACFCF2]
09 96,6 [3D23F35A] [E5261030]
 
Об альбоме (сборнике)
One of the most successful, most recorded and most influential jazz players of his time, Cal Tjader is these days a largely overlooked figure in the music’s history. Part of the cause of his lack of recognition is present in the reasons he was so successful. Tjader made no great leaps forward harmonically or rhythmically, but instead showed how jazz and Afro-Cuban music could blend together with the vibraphone as the lead instrument, its percussiveness working very well in that musical context. In doing so, he was followed by many others, his commercial success affording him the opportunity to record a great number of albums. However, Tjader died early – in 1982 – and this contributed to him becoming almost forgotten in the jazz world. Yet in the UK he is remembered with fondness by several generations of jazz clubbers for his 1950s mambos, 60s latin-soul grooves and 70s latin-funk, while his final albums for Concord provided jazz dancers with the timeless ‘Shoshana’. His early 70s albums for Fantasy are among his most overlooked, which, as you will hear on this CD, is a real shame, as his playing and the arrangements are of the very highest quality.
Born in St Louis, Missouri to parents of Swedish descent who worked in vaudeville, it was almost inevitable that he would become a performer. The family eventually settled in San Mateo, California, where they opened a dance school. After spending time in the United States Army during the war, Tjader enrolled in San Francisco state college, where he studied music and met fellow student Dave Brubeck. After drumming with Brubeck’s octet, he taught himself vibes and played in the Dave Brubeck Trio, which became a fixture on the local scene.
The group was signed to Fantasy, who also allowed Tjader to record as a leader. Although his albums featured latin flavoured material, it wasn’t until the release of 1955’s “Mambo With Tjader” that he defined his style. The LP debuted his Modern Mambo Quintet and rocketed Tjader to prominence. Alternating between latin and straight-ahead jazz, he recorded over 20 albums for Fantasy into the 60s.
His success attracted the attention of MGM’s jazz subsidiary, Verve, who under the leadership of Creed Taylor were keen to sign the most commercially popular jazz artists. He joined Verve in 1961 and continued to mix latin and jazz with other styles – his “Several Shades Of Jade” LP was based on the musical scales of the Far East. His latin recordings proved the most popular and his 1965 album “Soul Sauce” sold over 100,000 copies after its title track – a version of a Dizzy Gillespie song originally known as ‘Guachi Guaro’ – had become a radio hit. The track went on to enjoy a further surge of life as a big record on the UK’s Northern Soul scene. He continued to record for Verve until starting up the short-lived Skye label with fellow musicians Gary McFarland and Gabor Szabo in 1968. His Skye recordings showed his growing interest in the new Moog synthesiser, which he carried over to his next record deal.
After the demise of Skye he re-signed with Fantasy and set about recording in a distinctly 1970s style. His first album on re-joining the label featured a mixture of styles ranging from the out-and-out latin of ‘Mambero’ to a pop cover of the Beatles’ ‘She’s Leaving Home’ and an outstanding version of ‘Evil Ways’, a classic example of a Tjader latin-soul groove.
He followed up with “Agua Dulce”, again containing a variety of styles, but with a more distinctly latin feel to even the pop covers. The re-imagining of the contemporary Johnny Otis track ‘Cool-Ade’ as the latino title track is a great opener. Today the album is sought after for its version of the Rolling Stones’ ‘Gimme Shelter’, which features shimmering Moog work by Rita Dowling and fluid solos by Tjader underpinned by funk drums, all within a latin framework. The real high points are when the amazing band is allowed to stretch out on the purest of latin tracks, such as Tito Puente’s ‘Ran Kan Kan’ and ‘Descarga’. This is meat and drink for Tjader’s band, which includes the phenomenal brothers Pete and Coke Escovedo.
Most of the other tracks have a latin feel, often tempered with a vocal chorus or synthesiser voicings. These are especially effective in Tjader’s own ‘Curacao’ and ‘Now’ with its wonderful solos from trumpeter Luis Gasca and saxophonist Bill Perkins. On ‘Somewhere In The Night’ and ‘Invitation’ we are treated to some very effective ballad playing by Tjader which demonstrates that he remained an excellent jazz exponent. His second period with Fantasy was very productive, yielding such critically acclaimed albums as “Amazonas” produced by Brazilian percussionist Airto.
He then signed to the new Concord Jazz Picante label, which specialised in latin music. Here he went back to playing straight-ahead latin jazz with none of the electric experiments of his 70s work. This resulted in the Grammy-winning “La Onda Va Bien”, which won Tjader a Grammy for Best Jazz Album in 1980, a fitting way to mark the career of this now elder statesman of the jazz world. Three more albums for the label followed, including the critically acclaimed “Heatwave” in collaboration with Carmen McRae. He died from a heart attack while on tour in 1982.
“Agua Dulce” is an unjustly overlooked album in the Cal Tjader discography. It could be revered for its well-executed and passionate latin tracks alone, but with so many other things going on within its grooves it deserves proper recognition.
-- Dean Rudland
 
Состав
Cal Tjader - vibes, bongos, guido, percussion
Al Zulaica - Fender Rhodes electric piano
Jim McCabe, Ron McClure, Phil Escovedo - bass
Richard Berk, Lee Charlton - drums
Michael Smithe - congas, bongos, guido, percussion
Pete Escovedo - vocals, congas, bongos, guido, percussion
Coke Escovedo - vocals, timbales
Luis Gasca (solo on #8), Pat Houston, Frank Snow - trumpet
Bill Perkins - saxophone (solo on #8)
Gerry Gilmore, Mel Martin - saxophone, flute
Rita Dowling - Moog synthesizer
01:40
246
Нет комментариев. Ваш будет первым!