Поиск

(Afro-Cuban Jazz, Cool, Latin Jazz) [CD] Cal Tjader - Demasiado Caliente (w/ Cal Tjader Goes Latin) (1957-1960) - 2015, FLAC (tracks+.cue), lossless

(Afro-Cuban Jazz, Cool, Latin Jazz) [CD] Cal Tjader - Demasiado Caliente (w/ Cal Tjader Goes Latin) (1957-1960) - 2015, FLAC (tracks+.cue), lossless
Cal Tjader - Demasiado Caliente
Жанр: Afro-Cuban Jazz, Cool, Latin Jazz
Носитель: CD
Страна-производитель диска (релиза): Испания
Год издания: 2015
Издатель (лейбл): Cheesecake Records
Номер по каталогу: 5024027
Страна исполнителя (группы): США
Аудиокодек: FLAC (*.flac)
Тип рипа: tracks+.cue
Битрейт аудио: lossless
Продолжительность: 79:00
Источник (релизер): ArcticBlast
Наличие сканов в содержимом раздачи: нет
Треклист:
01. Manila (5:02)
02. Key Largo (3:39)
03. Tumbao (6:58)
04. Bludan (3:12)
05. Chispita (3:32)
06. September Song (3:51)
07. Cal's Pal (3:41)
08. Para Ti (3:33)
09. Mamblues (4:46)
10. Mi China (2:19)
11. Close Your Eyes (3:14)
12. Mambo at the "M" (4:43)
13. Contigo (2:43)
14. Bonita (2:32)
15. The Lady Is a Tramp (4:35)
16. Black Orchid (3:27)
17. Happiness Is a Thing Called Joe (3:48)
18. I've Waited So Long (2:11)
19. Out of Nowhere (3:29)
20. Guajira at the Blackhawk (5:21)
21. Mamblues (Original 1954 Version) (2:24)
 
Лог создания рипа
X Lossless Decoder version 20161007 (149.3)
XLD extraction logfile from 2017-05-22 20:03:59 -0400
Cal Tjader / Demasiado Caliente (Bonus Track Version)
Used drive : HL-DT-ST DVD-RW GH41N (revision PQ05)
Media type : Pressed CD
Ripper mode : XLD Secure Ripper
Disable audio cache : OK for the drive with a cache less than 1375KiB
Make use of C2 pointers : NO
Read offset correction : 667
Max retry count : 100
Gap status : Analyzed, Appended (except HTOA)
TOC of the extracted CD
Track | Start | Length | Start sector | End sector
---------------------------------------------------------
1 | 00:00:00 | 05:01:60 | 0 | 22634
2 | 05:01:60 | 03:39:33 | 22635 | 39092
3 | 08:41:18 | 06:57:73 | 39093 | 70440
4 | 15:39:16 | 03:12:10 | 70441 | 84850
5 | 18:51:26 | 03:31:54 | 84851 | 100729
6 | 22:23:05 | 03:51:29 | 100730 | 118083
7 | 26:14:34 | 03:41:22 | 118084 | 134680
8 | 29:55:56 | 03:33:01 | 134681 | 150656
9 | 33:28:57 | 04:45:53 | 150657 | 172084
10 | 38:14:35 | 02:19:27 | 172085 | 182536
11 | 40:33:62 | 03:13:71 | 182537 | 197082
12 | 43:47:58 | 04:42:48 | 197083 | 218280
13 | 48:30:31 | 02:42:41 | 218281 | 230471
14 | 51:12:72 | 02:31:59 | 230472 | 241855
15 | 53:44:56 | 04:35:29 | 241856 | 262509
16 | 58:20:10 | 03:27:00 | 262510 | 278034
17 | 61:47:10 | 03:47:49 | 278035 | 295108
18 | 65:34:59 | 02:11:30 | 295109 | 304963
19 | 67:46:14 | 03:28:71 | 304964 | 320634
20 | 71:15:10 | 05:20:63 | 320635 | 344697
21 | 76:35:73 | 02:24:22 | 344698 | 355519
AccurateRip Summary (DiscID: 003ef11d-03b26b87-32128415)
Track 01 : OK (v2, confidence 1/1)
Track 02 : OK (v2, confidence 1/1)
Track 03 : OK (v2, confidence 1/1)
Track 04 : OK (v2, confidence 1/1)
Track 05 : OK (v2, confidence 1/1)
Track 06 : OK (v2, confidence 1/1)
Track 07 : OK (v2, confidence 1/1)
Track 08 : OK (v2, confidence 1/1)
Track 09 : OK (v2, confidence 1/1)
Track 10 : OK (v2, confidence 1/1)
Track 11 : OK (v2, confidence 1/1)
Track 12 : OK (v2, confidence 1/1)
Track 13 : OK (v2, confidence 1/1)
Track 14 : OK (v2, confidence 1/1)
Track 15 : OK (v2, confidence 1/1)
Track 16 : OK (v2, confidence 1/1)
Track 17 : OK (v2, confidence 1/1)
Track 18 : OK (v2, confidence 1/1)
Track 19 : OK (v2, confidence 1/1)
Track 20 : OK (v2, confidence 1/1)
Track 21 : OK (v2, confidence 1/1)
->All tracks accurately ripped.
All Tracks
Album gain : -3.56 dB
Peak : 0.999969
Statistics
Read error : 0
Jitter error (maybe fixed) : 0
Retry sector count : 0
Damaged sector count : 0
Track 01
Filename : /Volumes/Data 2TB/XLD rips/Cal Tjader - Demasiado Caliente (Bonus Track Version) (2015) [FLAC]/01 - Manila (Featuring Willie Bobo & Mongo Santamaria)(1).flac
Pre-gap length : 00:02:00
Track gain : -5.83 dB
Peak : 0.999969
CRC32 hash (test run) : EBF5ED02
CRC32 hash : EBF5ED02
CRC32 hash (skip zero) : 21CE4577
AccurateRip v1 signature : C7823EEB
AccurateRip v2 signature : 877AF250
->Accurately ripped (v2, confidence 1/1)
Statistics
Read error : 0
Jitter error (maybe fixed) : 0
Retry sector count : 0
Damaged sector count : 0
Track 02
Filename : /Volumes/Data 2TB/XLD rips/Cal Tjader - Demasiado Caliente (Bonus Track Version) (2015) [FLAC]/02 - Key Largo (Featuring Willie Bobo & Mongo Santamaria)(1).flac
Pre-gap length : 00:03:40
Track gain : -4.70 dB
Peak : 0.975250
CRC32 hash (test run) : 9D07100E
CRC32 hash : 9D07100E
CRC32 hash (skip zero) : 7EFB7325
AccurateRip v1 signature : 727F1336
AccurateRip v2 signature : 06439558
->Accurately ripped (v2, confidence 1/1)
Statistics
Read error : 0
Jitter error (maybe fixed) : 0
Retry sector count : 0
Damaged sector count : 0
Track 03
Filename : /Volumes/Data 2TB/XLD rips/Cal Tjader - Demasiado Caliente (Bonus Track Version) (2015) [FLAC]/03 - Tumbao (Featuring Willie Bobo & Mongo Santamaria)(1).flac
Pre-gap length : 00:03:28
Track gain : -3.36 dB
Peak : 0.999969
CRC32 hash (test run) : 5B0140BE
CRC32 hash : 5B0140BE
CRC32 hash (skip zero) : C17D8B5D
AccurateRip v1 signature : 1BD34241
AccurateRip v2 signature : 1C6F02F7
->Accurately ripped (v2, confidence 1/1)
Statistics
Read error : 0
Jitter error (maybe fixed) : 0
Retry sector count : 0
Damaged sector count : 0
Track 04
Filename : /Volumes/Data 2TB/XLD rips/Cal Tjader - Demasiado Caliente (Bonus Track Version) (2015) [FLAC]/04 - Bludan (Featuring Willie Bobo & Mongo Santamaria)(1).flac
Pre-gap length : 00:03:26
Track gain : -5.29 dB
Peak : 0.999969
CRC32 hash (test run) : A145C3BB
CRC32 hash : A145C3BB
CRC32 hash (skip zero) : 5DC5ED9C
AccurateRip v1 signature : A5B20129
AccurateRip v2 signature : B43AE6B5
->Accurately ripped (v2, confidence 1/1)
Statistics
Read error : 0
Jitter error (maybe fixed) : 0
Retry sector count : 0
Damaged sector count : 0
Track 05
Filename : /Volumes/Data 2TB/XLD rips/Cal Tjader - Demasiado Caliente (Bonus Track Version) (2015) [FLAC]/05 - Chispita (Featuring Willie Bobo & Mongo Santamaria)(1).flac
Pre-gap length : 00:03:39
Track gain : -4.55 dB
Peak : 0.922241
CRC32 hash (test run) : 3B09E1E9
CRC32 hash : 3B09E1E9
CRC32 hash (skip zero) : 80880C7E
AccurateRip v1 signature : 9F948B3E
AccurateRip v2 signature : 191C862B
->Accurately ripped (v2, confidence 1/1)
Statistics
Read error : 0
Jitter error (maybe fixed) : 0
Retry sector count : 0
Damaged sector count : 0
Track 06
Filename : /Volumes/Data 2TB/XLD rips/Cal Tjader - Demasiado Caliente (Bonus Track Version) (2015) [FLAC]/06 - September Song (Featuring Willie Bobo & Mongo Santamaria)(1).flac
Pre-gap length : 00:03:39
Track gain : -1.90 dB
Peak : 0.999969
CRC32 hash (test run) : 7CEE44BF
CRC32 hash : 7CEE44BF
CRC32 hash (skip zero) : 314B21B4
AccurateRip v1 signature : C6ECC902
AccurateRip v2 signature : 88769399
->Accurately ripped (v2, confidence 1/1)
Statistics
Read error : 0
Jitter error (maybe fixed) : 0
Retry sector count : 0
Damaged sector count : 0
Track 07
Filename : /Volumes/Data 2TB/XLD rips/Cal Tjader - Demasiado Caliente (Bonus Track Version) (2015) [FLAC]/07 - Cal's Pal (Featuring Willie Bobo & Mongo Santamaria)(1).flac
Pre-gap length : 00:03:46
Track gain : -5.29 dB
Peak : 0.999969
CRC32 hash (test run) : EEBAAFE1
CRC32 hash : EEBAAFE1
CRC32 hash (skip zero) : D1177506
AccurateRip v1 signature : 41C726B8
AccurateRip v2 signature : 51025699
->Accurately ripped (v2, confidence 1/1)
Statistics
Read error : 0
Jitter error (maybe fixed) : 0
Retry sector count : 0
Damaged sector count : 0
Track 08
Filename : /Volumes/Data 2TB/XLD rips/Cal Tjader - Demasiado Caliente (Bonus Track Version) (2015) [FLAC]/08 - Para Ti (Featuring Willie Bobo & Mongo Santamaria)(1).flac
Pre-gap length : 00:03:30
Track gain : -5.38 dB
Peak : 0.991852
CRC32 hash (test run) : F4346ED3
CRC32 hash : F4346ED3
CRC32 hash (skip zero) : 1629C894
AccurateRip v1 signature : 164D1FCE
AccurateRip v2 signature : 2D064004
->Accurately ripped (v2, confidence 1/1)
Statistics
Read error : 0
Jitter error (maybe fixed) : 0
Retry sector count : 0
Damaged sector count : 0
Track 09
Filename : /Volumes/Data 2TB/XLD rips/Cal Tjader - Demasiado Caliente (Bonus Track Version) (2015) [FLAC]/09 - Mamblues (Featuring Willie Bobo & Mongo Santamaria)(1).flac
Pre-gap length : 00:03:33
Track gain : -3.72 dB
Peak : 0.999969
CRC32 hash (test run) : 45BC76CF
CRC32 hash : 45BC76CF
CRC32 hash (skip zero) : 3CF1C1A1
AccurateRip v1 signature : BAB72B7B
AccurateRip v2 signature : 3D67B327
->Accurately ripped (v2, confidence 1/1)
Statistics
Read error : 0
Jitter error (maybe fixed) : 0
Retry sector count : 0
Damaged sector count : 0
Track 10
Filename : /Volumes/Data 2TB/XLD rips/Cal Tjader - Demasiado Caliente (Bonus Track Version) (2015) [FLAC]/10 - Mi China (Featuring Willie Bobo & Mongo Santamaria) [Bonus Track](1).flac
Pre-gap length : 00:01:55
Track gain : -4.16 dB
Peak : 0.918549
CRC32 hash (test run) : 28BCC08C
CRC32 hash : 28BCC08C
CRC32 hash (skip zero) : FDC107F8
AccurateRip v1 signature : 3533D1AF
AccurateRip v2 signature : E70E516C
->Accurately ripped (v2, confidence 1/1)
Statistics
Read error : 0
Jitter error (maybe fixed) : 0
Retry sector count : 0
Damaged sector count : 0
Track 11
Filename : /Volumes/Data 2TB/XLD rips/Cal Tjader - Demasiado Caliente (Bonus Track Version) (2015) [FLAC]/11 - Close Your Eyes (Featuring Willie Bobo & Mongo Santamaria) [Bonus Track](1).flac
Pre-gap length : 00:03:41
Track gain : -2.77 dB
Peak : 0.999969
CRC32 hash (test run) : 98D78718
CRC32 hash : 98D78718
CRC32 hash (skip zero) : 37A555F0
AccurateRip v1 signature : 0F053300
AccurateRip v2 signature : 12D03889
->Accurately ripped (v2, confidence 1/1)
Statistics
Read error : 0
Jitter error (maybe fixed) : 0
Retry sector count : 0
Damaged sector count : 0
Track 12
Filename : /Volumes/Data 2TB/XLD rips/Cal Tjader - Demasiado Caliente (Bonus Track Version) (2015) [FLAC]/12 - Mambo at the "M" (Featuring Vince Guaraldi) [Bonus Track](1).flac
Pre-gap length : 00:03:30
Track gain : -0.30 dB
Peak : 0.845978
CRC32 hash (test run) : 083C2D70
CRC32 hash : 083C2D70
CRC32 hash (skip zero) : 88DBE18D
AccurateRip v1 signature : BBD618E5
AccurateRip v2 signature : 6FA9E983
->Accurately ripped (v2, confidence 1/1)
Statistics
Read error : 0
Jitter error (maybe fixed) : 0
Retry sector count : 0
Damaged sector count : 0
Track 13
Filename : /Volumes/Data 2TB/XLD rips/Cal Tjader - Demasiado Caliente (Bonus Track Version) (2015) [FLAC]/13 - Contigo (Featuring Willie Bobo & Mongo Santamaria) [Bonus Track](1).flac
Pre-gap length : 00:03:21
Track gain : -2.75 dB
Peak : 0.987640
CRC32 hash (test run) : 29A543B3
CRC32 hash : 29A543B3
CRC32 hash (skip zero) : 8FEE4905
AccurateRip v1 signature : AD013E9F
AccurateRip v2 signature : A3E8C339
->Accurately ripped (v2, confidence 1/1)
Statistics
Read error : 0
Jitter error (maybe fixed) : 0
Retry sector count : 0
Damaged sector count : 0
Track 14
Filename : /Volumes/Data 2TB/XLD rips/Cal Tjader - Demasiado Caliente (Bonus Track Version) (2015) [FLAC]/14 - Bonita (Featuring Willie Bobo & Mongo Santamaria) [Bonus Track](1).flac
Pre-gap length : 00:03:31
Track gain : -1.83 dB
Peak : 0.906128
CRC32 hash (test run) : CC78483B
CRC32 hash : CC78483B
CRC32 hash (skip zero) : F82D416F
AccurateRip v1 signature : 9B532AD3
AccurateRip v2 signature : D606ABCE
->Accurately ripped (v2, confidence 1/1)
Statistics
Read error : 0
Jitter error (maybe fixed) : 0
Retry sector count : 0
Damaged sector count : 0
Track 15
Filename : /Volumes/Data 2TB/XLD rips/Cal Tjader - Demasiado Caliente (Bonus Track Version) (2015) [FLAC]/15 - The Lady Is a Tramp (Featuring Willie Bobo & Mongo Santamaria) [Bonus Track](1).flac
Pre-gap length : 00:03:32
Track gain : -1.29 dB
Peak : 0.996033
CRC32 hash (test run) : A340E494
CRC32 hash : A340E494
CRC32 hash (skip zero) : C1F9E80C
AccurateRip v1 signature : 58D32106
AccurateRip v2 signature : F869E7FA
->Accurately ripped (v2, confidence 1/1)
Statistics
Read error : 0
Jitter error (maybe fixed) : 0
Retry sector count : 0
Damaged sector count : 0
Track 16
Filename : /Volumes/Data 2TB/XLD rips/Cal Tjader - Demasiado Caliente (Bonus Track Version) (2015) [FLAC]/16 - Black Orchid (Featuring Willie Bobo & Mongo Santamaria) [Bonus Track](1).flac
Pre-gap length : 00:03:36
Track gain : 1.86 dB
Peak : 0.735962
CRC32 hash (test run) : 1D267C08
CRC32 hash : 1D267C08
CRC32 hash (skip zero) : 8AA715A5
AccurateRip v1 signature : 2E122F1E
AccurateRip v2 signature : BC56E47B
->Accurately ripped (v2, confidence 1/1)
Statistics
Read error : 0
Jitter error (maybe fixed) : 0
Retry sector count : 0
Damaged sector count : 0
Track 17
Filename : /Volumes/Data 2TB/XLD rips/Cal Tjader - Demasiado Caliente (Bonus Track Version) (2015) [FLAC]/17 - Happiness Is a Thing Called Joe (Featuring Willie Bobo & Mongo Santamaria) [Bonus Track](1).flac
Pre-gap length : 00:03:40
Track gain : -2.12 dB
Peak : 0.999969
CRC32 hash (test run) : 8E2EA83E
CRC32 hash : 8E2EA83E
CRC32 hash (skip zero) : 69856D3F
AccurateRip v1 signature : 31CA6648
AccurateRip v2 signature : FF12B527
->Accurately ripped (v2, confidence 1/1)
Statistics
Read error : 0
Jitter error (maybe fixed) : 0
Retry sector count : 0
Damaged sector count : 0
Track 18
Filename : /Volumes/Data 2TB/XLD rips/Cal Tjader - Demasiado Caliente (Bonus Track Version) (2015) [FLAC]/18 - I've Waited so Long (Featuring Vince Guaraldi) [Bonus Track](1).flac
Pre-gap length : 00:03:42
Track gain : 0.27 dB
Peak : 0.746307
CRC32 hash (test run) : 3B0B32C8
CRC32 hash : 3B0B32C8
CRC32 hash (skip zero) : 28A616A5
AccurateRip v1 signature : 7B75FCED
AccurateRip v2 signature : 3F7A01E6
->Accurately ripped (v2, confidence 1/1)
Statistics
Read error : 0
Jitter error (maybe fixed) : 0
Retry sector count : 0
Damaged sector count : 0
Track 19
Filename : /Volumes/Data 2TB/XLD rips/Cal Tjader - Demasiado Caliente (Bonus Track Version) (2015) [FLAC]/19 - Out of Nowhere (Featuring Willie Bobo & Mongo Santamaria) [Bonus Track](1).flac
Pre-gap length : 00:03:30
Track gain : -1.64 dB
Peak : 0.976379
CRC32 hash (test run) : 15415F1B
CRC32 hash : 15415F1B
CRC32 hash (skip zero) : D65B04B5
AccurateRip v1 signature : AAFC2651
AccurateRip v2 signature : BC06DBF2
->Accurately ripped (v2, confidence 1/1)
Statistics
Read error : 0
Jitter error (maybe fixed) : 0
Retry sector count : 0
Damaged sector count : 0
Track 20
Filename : /Volumes/Data 2TB/XLD rips/Cal Tjader - Demasiado Caliente (Bonus Track Version) (2015) [FLAC]/20 - Guajira at the Blackhawk (Featuring Willie Bobo & Mongo Santamaria) [Bonus Track](1).flac
Pre-gap length : 00:03:46
Track gain : -1.26 dB
Peak : 0.836884
CRC32 hash (test run) : 1C3458D2
CRC32 hash : 1C3458D2
CRC32 hash (skip zero) : D317A63B
AccurateRip v1 signature : C257616C
AccurateRip v2 signature : 9EB865A8
->Accurately ripped (v2, confidence 1/1)
Statistics
Read error : 0
Jitter error (maybe fixed) : 0
Retry sector count : 0
Damaged sector count : 0
Track 21
Filename : /Volumes/Data 2TB/XLD rips/Cal Tjader - Demasiado Caliente (Bonus Track Version) (2015) [FLAC]/21 - Mamblues (Original 1954 Version) [Bonus Track](1).flac
Pre-gap length : 00:02:08
Track gain : -2.15 dB
Peak : 0.924286
CRC32 hash (test run) : B37A2F3D
CRC32 hash : B37A2F3D
CRC32 hash (skip zero) : 494DF23A
AccurateRip v1 signature : 9C6DFF1F
AccurateRip v2 signature : 5C76163D
->Accurately ripped (v2, confidence 1/1)
Statistics
Read error : 0
Jitter error (maybe fixed) : 0
Retry sector count : 0
Damaged sector count : 0
No errors occurred
End of status report
-----BEGIN XLD SIGNATURE-----
2uyrkhcceSXKhJ1Gt7siIU1yQ3WJJb_Gp2uK28ig216TW5.wfzi7Dp3ds.Zsh1KFRWrXe3Fuh41iGqL9r42sqRFDGDpSlpOxIeNKVyS
-----END XLD SIGNATURE-----
 
Содержание индексной карты (.CUE)
TITLE "Demasiado Caliente"
PERFORMER "Cal Tjader"
REM GENRE "Jazz"
REM DATE "2015"
REM DISCID 32128415
REM REPLAYGAIN_ALBUM_GAIN -3.56 dB
REM REPLAYGAIN_ALBUM_PEAK 0.999969
FILE "01 - Manila.flac" WAVE
TRACK 01 AUDIO
TITLE "Manila"
REM REPLAYGAIN_TRACK_GAIN -5.83 dB
REM REPLAYGAIN_TRACK_PEAK 0.999969
INDEX 01 00:00:00
TRACK 02 AUDIO
TITLE "Key Largo"
REM REPLAYGAIN_TRACK_GAIN -4.70 dB
REM REPLAYGAIN_TRACK_PEAK 0.975250
INDEX 00 04:58:20
FILE "02 - Key Largo.flac" WAVE
INDEX 01 00:00:00
TRACK 03 AUDIO
TITLE "Tumbao"
REM REPLAYGAIN_TRACK_GAIN -3.36 dB
REM REPLAYGAIN_TRACK_PEAK 0.999969
INDEX 00 03:36:05
FILE "03 - Tumbao.flac" WAVE
INDEX 01 00:00:00
TRACK 04 AUDIO
TITLE "Bludan"
REM REPLAYGAIN_TRACK_GAIN -5.29 dB
REM REPLAYGAIN_TRACK_PEAK 0.999969
INDEX 00 06:54:47
FILE "04 - Bludan.flac" WAVE
INDEX 01 00:00:00
TRACK 05 AUDIO
TITLE "Chispita"
REM REPLAYGAIN_TRACK_GAIN -4.55 dB
REM REPLAYGAIN_TRACK_PEAK 0.922241
INDEX 00 03:08:46
FILE "05 - Chispita.flac" WAVE
INDEX 01 00:00:00
TRACK 06 AUDIO
TITLE "September Song"
REM REPLAYGAIN_TRACK_GAIN -1.90 dB
REM REPLAYGAIN_TRACK_PEAK 0.999969
INDEX 00 03:28:15
FILE "06 - September Song.flac" WAVE
INDEX 01 00:00:00
TRACK 07 AUDIO
TITLE "Cal's Pal"
REM REPLAYGAIN_TRACK_GAIN -5.29 dB
REM REPLAYGAIN_TRACK_PEAK 0.999969
INDEX 00 03:47:58
FILE "07 - Cal's Pal.flac" WAVE
INDEX 01 00:00:00
TRACK 08 AUDIO
TITLE "Para Ti"
REM REPLAYGAIN_TRACK_GAIN -5.38 dB
REM REPLAYGAIN_TRACK_PEAK 0.991852
INDEX 00 03:37:67
FILE "08 - Para Ti.flac" WAVE
INDEX 01 00:00:00
TRACK 09 AUDIO
TITLE "Mamblues"
REM REPLAYGAIN_TRACK_GAIN -3.72 dB
REM REPLAYGAIN_TRACK_PEAK 0.999969
INDEX 00 03:29:43
FILE "09 - Mamblues.flac" WAVE
INDEX 01 00:00:00
TRACK 10 AUDIO
TITLE "Mi China"
REM REPLAYGAIN_TRACK_GAIN -4.16 dB
REM REPLAYGAIN_TRACK_PEAK 0.918549
INDEX 00 04:43:73
FILE "10 - Mi China.flac" WAVE
INDEX 01 00:00:00
TRACK 11 AUDIO
TITLE "Close Your Eyes"
REM REPLAYGAIN_TRACK_GAIN -2.77 dB
REM REPLAYGAIN_TRACK_PEAK 0.999969
INDEX 00 02:15:61
FILE "11 - Close Your Eyes.flac" WAVE
INDEX 01 00:00:00
TRACK 12 AUDIO
TITLE "Mambo at the 'M'"
REM REPLAYGAIN_TRACK_GAIN -0.30 dB
REM REPLAYGAIN_TRACK_PEAK 0.845978
INDEX 00 03:10:41
FILE "12 - Mambo at the 'M'.flac" WAVE
INDEX 01 00:00:00
TRACK 13 AUDIO
TITLE "Contigo"
REM REPLAYGAIN_TRACK_GAIN -2.75 dB
REM REPLAYGAIN_TRACK_PEAK 0.987640
INDEX 00 04:39:27
FILE "13 - Contigo.flac" WAVE
INDEX 01 00:00:00
TRACK 14 AUDIO
TITLE "Bonita"
REM REPLAYGAIN_TRACK_GAIN -1.83 dB
REM REPLAYGAIN_TRACK_PEAK 0.906128
INDEX 00 02:39:10
FILE "14 - Bonita.flac" WAVE
INDEX 01 00:00:00
TRACK 15 AUDIO
TITLE "The Lady Is a Tramp"
REM REPLAYGAIN_TRACK_GAIN -1.29 dB
REM REPLAYGAIN_TRACK_PEAK 0.996033
INDEX 00 02:28:27
FILE "15 - The Lady Is a Tramp.flac" WAVE
INDEX 01 00:00:00
TRACK 16 AUDIO
TITLE "Black Orchid"
REM REPLAYGAIN_TRACK_GAIN 1.86 dB
REM REPLAYGAIN_TRACK_PEAK 0.735962
INDEX 00 04:31:68
FILE "16 - Black Orchid.flac" WAVE
INDEX 01 00:00:00
TRACK 17 AUDIO
TITLE "Happiness Is a Thing Called Joe"
REM REPLAYGAIN_TRACK_GAIN -2.12 dB
REM REPLAYGAIN_TRACK_PEAK 0.999969
INDEX 00 03:23:35
FILE "17 - Happiness Is a Thing Called Joe.flac" WAVE
INDEX 01 00:00:00
TRACK 18 AUDIO
TITLE "I've Waited So Long"
REM REPLAYGAIN_TRACK_GAIN 0.27 dB
REM REPLAYGAIN_TRACK_PEAK 0.746307
INDEX 00 03:44:07
FILE "18 - I've Waited So Long.flac" WAVE
INDEX 01 00:00:00
TRACK 19 AUDIO
TITLE "Out of Nowhere"
REM REPLAYGAIN_TRACK_GAIN -1.64 dB
REM REPLAYGAIN_TRACK_PEAK 0.976379
INDEX 00 02:08:00
FILE "19 - Out of Nowhere.flac" WAVE
INDEX 01 00:00:00
TRACK 20 AUDIO
TITLE "Guajira at the Blackhawk"
REM REPLAYGAIN_TRACK_GAIN -1.26 dB
REM REPLAYGAIN_TRACK_PEAK 0.836884
INDEX 00 03:25:25
FILE "20 - Guajira at the Blackhawk.flac" WAVE
INDEX 01 00:00:00
TRACK 21 AUDIO
TITLE "Mamblues (Original 1954 Version)"
REM REPLAYGAIN_TRACK_GAIN -2.15 dB
REM REPLAYGAIN_TRACK_PEAK 0.924286
INDEX 00 05:18:55
FILE "21 - Mamblues (Original 1954 Version).flac" WAVE
INDEX 01 00:00:00
 
Отчет CUETools
[CUETools log; Date: 18.07.2017 16:18:24; Version: 2.1.5]
[CTDB TOCID: F2ng_aGLdiEUtbAx5vn1S09MSFc-] found.
Track | CTDB Status
1 | (2/2) Accurately ripped
2 | (2/2) Accurately ripped
3 | (2/2) Accurately ripped
4 | (2/2) Accurately ripped
5 | (2/2) Accurately ripped
6 | (2/2) Accurately ripped
7 | (2/2) Accurately ripped
8 | (2/2) Accurately ripped
9 | (2/2) Accurately ripped
10 | (2/2) Accurately ripped
11 | (2/2) Accurately ripped
12 | (2/2) Accurately ripped
13 | (2/2) Accurately ripped
14 | (2/2) Accurately ripped
15 | (2/2) Accurately ripped
16 | (2/2) Accurately ripped
17 | (2/2) Accurately ripped
18 | (2/2) Accurately ripped
19 | (2/2) Accurately ripped
20 | (2/2) Accurately ripped
21 | (2/2) Accurately ripped
[AccurateRip ID: 003ef11d-03b26b87-32128415] found.
Track [ CRC | V2 ] Status
01 [c7823eeb|877af250] (0+1/1) Accurately ripped
02 [727f1336|06439558] (0+1/1) Accurately ripped
03 [1bd34241|1c6f02f7] (0+1/1) Accurately ripped
04 [a5b20129|b43ae6b5] (0+1/1) Accurately ripped
05 [9f948b3e|191c862b] (0+1/1) Accurately ripped
06 [c6ecc902|88769399] (0+1/1) Accurately ripped
07 [41c726b8|51025699] (0+1/1) Accurately ripped
08 [164d1fce|2d064004] (0+1/1) Accurately ripped
09 [bab72b7b|3d67b327] (0+1/1) Accurately ripped
10 [3533d1af|e70e516c] (0+1/1) Accurately ripped
11 [0f053300|12d03889] (0+1/1) Accurately ripped
12 [bbd618e5|6fa9e983] (0+1/1) Accurately ripped
13 [ad013e9f|a3e8c339] (0+1/1) Accurately ripped
14 [9b532ad3|d606abce] (0+1/1) Accurately ripped
15 [58d32106|f869e7fa] (0+1/1) Accurately ripped
16 [2e122f1e|bc56e47b] (0+1/1) Accurately ripped
17 [31ca6648|ff12b527] (0+1/1) Accurately ripped
18 [7b75fced|3f7a01e6] (0+1/1) Accurately ripped
19 [aafc2651|bc06dbf2] (0+1/1) Accurately ripped
20 [c257616c|9eb865a8] (0+1/1) Accurately ripped
21 [9c6dff1f|5c76163d] (0+1/1) Accurately ripped
Track Peak [ CRC32 ] [W/O NULL]
-- 100,0 [3BBA7852] [B7F113E7]
01 99,9 [EBF5ED02] [21CE4577]
02 97,5 [9D07100E] [7EFB7325]
03 100,0 [5B0140BE] [C17D8B5D]
04 99,9 [A145C3BB] [5DC5ED9C]
05 92,2 [3B09E1E9] [80880C7E]
06 99,9 [7CEE44BF] [314B21B4]
07 100,0 [EEBAAFE1] [D1177506]
08 99,1 [F4346ED3] [1629C894]
09 99,9 [45BC76CF] [3CF1C1A1]
10 91,8 [28BCC08C] [FDC107F8]
11 100,0 [98D78718] [37A555F0]
12 84,5 [083C2D70] [88DBE18D]
13 98,7 [29A543B3] [8FEE4905]
14 90,6 [CC78483B] [F82D416F]
15 99,6 [A340E494] [C1F9E80C]
16 73,5 [1D267C08] [8AA715A5]
17 99,9 [8E2EA83E] [69856D3F]
18 74,6 [3B0B32C8] [28A616A5]
19 97,6 [15415F1B] [D65B04B5]
20 83,6 [1C3458D2] [D317A63B]
21 92,4 [B37A2F3D] [494DF23A]
 
Состав
Cal Tjader - vibes
with
#1,3,6,8,9:
Jose Lozano - flute
Lonnie Hewitt - piano
Víctor Venegas - bass
Willie Bobo - drums, percussion
Mongo Santamaria - congas
Recorded at the Blackhawk, San Francisco, CA in 1960.
#2,4,5,7:
Big Band including
Tony Terran - trumpet
Modesto Breseno - flute, alto saxophone
Eddie Cano - piano, arranger
Al McKibbon - bass
Willie Bobo - drums, percussion
Mongo Santamaria - congas
Recorded in San Francisco, CA in 1960.
Bonus Album (#10-20) - "Cal Tjader Goes Latin" (1959)
#10,14,16:
Paul Horn - flute, clarinet, alto saxophone
Lonnie Hewitt - piano
Al McKibbon - bass
Willie Bobo - drums, timbales
Mongo Santamaria - congas, bongos
Recorded in San Francisco, CA in 1959.
#11,13,15,17,19,20:
Jose "Chombo" Silva - tenor saxophone
Vince Guaraldi - piano
Al McKibbon - bass
Willie Bobo, Mongo Santamaria - congas, bongos
Recorded at the Blackhawk, San Francisco, CA in 1958.
#12,18:
Vince Guaraldi - piano
Gene Wright - bass
Luis Kant - drums
Bayardo Velarde - congas, bongos
Recorded in San Francisco, CA on September 10, 1957.
01:40
251
Нет комментариев. Ваш будет первым!