Поиск

(Free Jazz, Spiritual Jazz) [CD] Linda Hill - Lullaby for Linda - 1981 (2012), FLAC (tracks+.cue), lossless

(Free Jazz, Spiritual Jazz) [CD] Linda Hill - Lullaby for Linda - 1981 (2012), FLAC (tracks+.cue), lossless
Linda Hill - Lullaby for Linda
Жанр: Free Jazz, Spiritual Jazz
Носитель: CD
Страна-производитель диска (релиза): США
Год издания: 2012
Издатель (лейбл): Nimbus West Records
Номер по каталогу: NS791C
Аудиокодек: FLAC (*.flac)
Тип рипа: tracks+.cue
Битрейт аудио: lossless
Продолжительность: 46:47
Источник (релизер): What.CD
Наличие сканов в содержимом раздачи: нет
Треклист:
01. Leland's Song (Hill) - 14:16
02. The Creator's Musician (Miranda) - 10:15
03. Lullaby for Linda (Hill) - 11:19
04. Children (Hill) - 10:57
Состав:
Linda Hill - piano, vocals
Sabir Mateen - tenor saxophone, clarinet
Adele Sebastian - flute, vocals
Aubrey Hart - flute
Fundi Legohn - French horn
Roberto Miguel Miranda - bass
Everett Brown, Jr. - drums
Virgilio Figueroa - percussion
Jugegr Juan Grey - vocals
Recorded in Los Angeles, CA in 1981.
 
Лог создания рипа
Exact Audio Copy V1.0 beta 6 from 9. April 2015
EAC extraction logfile from 25. June 2016, 15:43
Linda Hill / Lullaby For Linda
Used drive : MATSHITADVD+-RW UJ8FB Adapter: 1 ID: 0
Read mode : Secure
Utilize accurate stream : Yes
Defeat audio cache : Yes
Make use of C2 pointers : No
Read offset correction : 6
Overread into Lead-In and Lead-Out : No
Fill up missing offset samples with silence : Yes
Delete leading and trailing silent blocks : No
Null samples used in CRC calculations : Yes
Used interface : Native Win32 interface for Win NT & 2000
Gap handling : Appended to previous track
Used output format : User Defined Encoder
Selected bitrate : 1024 kBit/s
Quality : High
Add ID3 tag : No
Command line compressor : C:\Program Files\Flac\flac.exe
Additional command line options : -8 -V -T "ARTIST=%artist%" -T "TITLE=%title%" -T "ALBUM=%albumtitle%" -T "DATE=%year%" -T "TRACKNUMBER=%tracknr%" -T "GENRE=%genre%" -T "PERFORMER=%albuminterpret%" -T "COMPOSER=%composer%" %haslyrics%--tag-from-file=LYRICS="%lyricsfile%"%haslyrics% -T "ALBUMARTIST=%albumartist%" -T "DISCNUMBER=%cdnumber%" -T "TOTALDISCS=%totalcds%" -T "TOTALTRACKS=%numtracks%" -T "COMMENT=%comment%" %source% -o %dest%
TOC of the extracted CD
Track | Start | Length | Start sector | End sector
---------------------------------------------------------
1 | 0:00.00 | 14:16.21 | 0 | 64220
2 | 14:16.21 | 10:14.56 | 64221 | 110326
3 | 24:31.02 | 11:19.09 | 110327 | 161260
4 | 35:50.11 | 10:56.43 | 161261 | 210503
Track 1
Filename C:\EAC Rips\Linda Hill - Lullaby For Linda (1981)\01 - Leland's Song.wav
Pre-gap length 0:00:02.00
Peak level 71.7 %
Extraction speed 3.4 X
Track quality 100.0 %
Test CRC 0EBD8F78
Copy CRC 0EBD8F78
Track not present in AccurateRip database
Copy OK
Track 2
Filename C:\EAC Rips\Linda Hill - Lullaby For Linda (1981)\02 - The Creator's Musician.wav
Peak level 99.5 %
Extraction speed 4.2 X
Track quality 100.0 %
Test CRC 089D433B
Copy CRC 089D433B
Track not present in AccurateRip database
Copy OK
Track 3
Filename C:\EAC Rips\Linda Hill - Lullaby For Linda (1981)\03 - Lullaby For Linda.wav
Peak level 98.4 %
Extraction speed 4.8 X
Track quality 100.0 %
Test CRC 80ED3C93
Copy CRC 80ED3C93
Track not present in AccurateRip database
Copy OK
Track 4
Filename C:\EAC Rips\Linda Hill - Lullaby For Linda (1981)\04 - Children.wav
Peak level 80.6 %
Extraction speed 5.4 X
Track quality 100.0 %
Test CRC 5E308A5A
Copy CRC 5E308A5A
Track not present in AccurateRip database
Copy OK
None of the tracks are present in the AccurateRip database
No errors occurred
End of status report
---- CUETools DB Plugin V2.1.6
[CTDB TOCID: Em8h1fvzjGwD5YcCHeN4XAM7mhM-] disk not present in database
Submit result: Em8h1fvzjGwD5YcCHeN4XAM7mhM- has been uploaded
==== Log checksum 37484DF10B6FCFD178AEC19A0805D70304F36BF2BB88ED744D424BECCFB5ED2B ====
 
Содержание индексной карты (.CUE)
REM GENRE Jazz
REM DATE 1981
REM DISCID 300AF604
REM COMMENT "ExactAudioCopy v1.0b6"
PERFORMER "Linda Hill"
TITLE "Lullaby for Linda"
FILE "01 - Leland's Song.wav" WAVE
TRACK 01 AUDIO
TITLE "Leland's Song"
PERFORMER "Linda Hill"
INDEX 01 00:00:00
FILE "02 - The Creator's Musician.wav" WAVE
TRACK 02 AUDIO
TITLE "The Creator's Musician"
PERFORMER "Linda Hill"
INDEX 01 00:00:00
FILE "03 - Lullaby for Linda.wav" WAVE
TRACK 03 AUDIO
TITLE "Lullaby for Linda"
PERFORMER "Linda Hill"
INDEX 01 00:00:00
FILE "04 - Children.wav" WAVE
TRACK 04 AUDIO
TITLE "Children"
PERFORMER "Linda Hill"
INDEX 01 00:00:00
 
Об альбоме (сборнике)
Linda Hill is a very special singer and piano player. Linda is devoted to keep black culture alive in Los Angeles. She's a jazz veteran and has kept herself and her music pure and untouched by the commercialism of music industry. Linda Hill is born in El Paso, Texas.
Her only album "Lullaby for Linda" dates from the early 80’s, and features Adele Sebastian on flute and vocals. Jugeger Juan Grey adds some more soulful but off beat vocals to the expressive spiritual jazz music. Check "The Creators Musician" which starts with a vocal and then builds through several solo's.
01:41
269
Нет комментариев. Ваш будет первым!