Поиск

(Afro-Cuban Jazz, Big Band) [CD] The Kenny Clarke-Francy Boland Big Band - Latin Kaleidoscope, Cuban Fever - 1968 (2011), FLAC (tracks+.cue), lossless

(Afro-Cuban Jazz, Big Band) [CD] The Kenny Clarke-Francy Boland Big Band - Latin Kaleidoscope, Cuban Fever - 1968 (2011), FLAC (tracks+.cue), lossless
Треклист:
The Kenny Clarke-Francy Boland Big Band - Latin Kaleidoscope, Cuban Fever
Жанр: Afro-Cuban Jazz, Big Band
Носитель: CD
Страна-производитель диска (релиза): Германия
Год издания: 2011
Издатель (лейбл): MPS Records
Номер по каталогу: 06025 2759201
Аудиокодек: FLAC (*.flac)
Тип рипа: tracks+.cue
Битрейт аудио: lossless
Продолжительность: 38:05
Источник (релизер): stoichie (what)
Наличие сканов в содержимом раздачи: нет
Треклист:
Gary McFarland's "Latin Kaleidoscope"
I Movement
01. Un Graso de Areia (4:55)
02. Duas Rosas (2:28)
II Movement
03. A Rosa Negra (1:59)
04. Uma Fita de Tres Cores (4:02)
III Movement
05. Olhos Negros (4:01)
06. Ramo de Flores (2:03)
Francy Boland's "Cuban Fever"
I Movement
07. Fiebre Cuban (2:24)
08. Mambo de Las Brujas (4:09)
09. Strano Sueno (4:06)
II Movement
10. Cara Bruja (2:10)
III Movement
11. Crespusculo y Aurora (5:48)
 
Лог создания рипа
Exact Audio Copy V1.0 beta 6 from 9. April 2015
EAC extraction logfile from 2. August 2015, 15:34
The Kenny Clarke - Francy Boland Big Band / Latin Kaleidoscope / Cuban Fever
Used drive : MATSHITADVD+-RW UJ8FB Adapter: 1 ID: 0
Read mode : Secure
Utilize accurate stream : Yes
Defeat audio cache : Yes
Make use of C2 pointers : No
Read offset correction : 6
Overread into Lead-In and Lead-Out : No
Fill up missing offset samples with silence : Yes
Delete leading and trailing silent blocks : No
Null samples used in CRC calculations : Yes
Used interface : Native Win32 interface for Win NT & 2000
Gap handling : Appended to previous track
Used output format : User Defined Encoder
Selected bitrate : 1024 kBit/s
Quality : High
Add ID3 tag : No
Command line compressor : C:\Program Files\Flac\flac.exe
Additional command line options : -8 -V -T "ARTIST=%artist%" -T "TITLE=%title%" -T "ALBUM=%albumtitle%" -T "DATE=%year%" -T "TRACKNUMBER=%tracknr%" -T "GENRE=%genre%" -T "PERFORMER=%albuminterpret%" -T "COMPOSER=%composer%" %haslyrics%--tag-from-file=LYRICS="%lyricsfile%"%haslyrics% -T "ALBUMARTIST=%albumartist%" -T "DISCNUMBER=%cdnumber%" -T "TOTALDISCS=%totalcds%" -T "TOTALTRACKS=%numtracks%" -T "COMMENT=%comment%" %source% -o %dest%
TOC of the extracted CD
Track | Start | Length | Start sector | End sector
---------------------------------------------------------
1 | 0:00.00 | 4:54.72 | 0 | 22121
2 | 4:54.72 | 2:27.64 | 22122 | 33210
3 | 7:22.61 | 1:58.71 | 33211 | 42131
4 | 9:21.57 | 4:02.11 | 42132 | 60292
5 | 13:23.68 | 4:01.30 | 60293 | 78397
6 | 17:25.23 | 2:02.68 | 78398 | 87615
7 | 19:28.16 | 2:24.11 | 87616 | 98426
8 | 21:52.27 | 4:08.60 | 98427 | 117086
9 | 26:01.12 | 4:05.69 | 117087 | 135530
10 | 30:07.06 | 2:10.20 | 135531 | 145300
11 | 32:17.26 | 5:48.33 | 145301 | 171433
Track 1
Filename C:\EAC Rips\The Kenny Clarke-Francy Boland Big Band - Latin Kaleidoscope - Cuban Fever (1968)\01 - Un Graso De Areia.wav
Pre-gap length 0:00:02.00
Peak level 99.9 %
Extraction speed 2.8 X
Track quality 100.0 %
Test CRC 8225C05F
Copy CRC 8225C05F
Accurately ripped (confidence 2) [81AF9580] (AR v2)
Copy OK
Track 2
Filename C:\EAC Rips\The Kenny Clarke-Francy Boland Big Band - Latin Kaleidoscope - Cuban Fever (1968)\02 - Duas Rosas.wav
Peak level 86.4 %
Extraction speed 2.7 X
Track quality 100.0 %
Test CRC D713D053
Copy CRC D713D053
Accurately ripped (confidence 2) [5A423913] (AR v2)
Copy OK
Track 3
Filename C:\EAC Rips\The Kenny Clarke-Francy Boland Big Band - Latin Kaleidoscope - Cuban Fever (1968)\03 - A Rosa Negra.wav
Pre-gap length 0:00:01.32
Peak level 99.9 %
Extraction speed 2.8 X
Track quality 100.0 %
Test CRC 5644D4C2
Copy CRC 5644D4C2
Accurately ripped (confidence 2) [D29FD746] (AR v2)
Copy OK
Track 4
Filename C:\EAC Rips\The Kenny Clarke-Francy Boland Big Band - Latin Kaleidoscope - Cuban Fever (1968)\04 - Uma Fita De Tres Cores.wav
Peak level 99.9 %
Extraction speed 3.3 X
Track quality 100.0 %
Test CRC 29FAF5CC
Copy CRC 29FAF5CC
Accurately ripped (confidence 2) [78E37B3D] (AR v2)
Copy OK
Track 5
Filename C:\EAC Rips\The Kenny Clarke-Francy Boland Big Band - Latin Kaleidoscope - Cuban Fever (1968)\05 - Olhos Negros.wav
Pre-gap length 0:00:02.65
Peak level 97.3 %
Extraction speed 3.5 X
Track quality 100.0 %
Test CRC 501FEDA7
Copy CRC 501FEDA7
Accurately ripped (confidence 2) [A98F5794] (AR v2)
Copy OK
Track 6
Filename C:\EAC Rips\The Kenny Clarke-Francy Boland Big Band - Latin Kaleidoscope - Cuban Fever (1968)\06 - Ramo De Flores.wav
Pre-gap length 0:00:01.32
Peak level 99.9 %
Extraction speed 3.3 X
Track quality 100.0 %
Test CRC C1265E6C
Copy CRC C1265E6C
Accurately ripped (confidence 2) [A1CFD851] (AR v2)
Copy OK
Track 7
Filename C:\EAC Rips\The Kenny Clarke-Francy Boland Big Band - Latin Kaleidoscope - Cuban Fever (1968)\07 - Fiebre Cuban.wav
Pre-gap length 0:00:01.65
Peak level 99.9 %
Extraction speed 3.5 X
Track quality 100.0 %
Test CRC 9A05C3ED
Copy CRC 9A05C3ED
Accurately ripped (confidence 2) [3B1FBB73] (AR v2)
Copy OK
Track 8
Filename C:\EAC Rips\The Kenny Clarke-Francy Boland Big Band - Latin Kaleidoscope - Cuban Fever (1968)\08 - Mambo De Las Brujas.wav
Peak level 99.9 %
Extraction speed 4.0 X
Track quality 100.0 %
Test CRC 163BD4A8
Copy CRC 163BD4A8
Accurately ripped (confidence 2) [A331CD2C] (AR v2)
Copy OK
Track 9
Filename C:\EAC Rips\The Kenny Clarke-Francy Boland Big Band - Latin Kaleidoscope - Cuban Fever (1968)\09 - Strano Sueno.wav
Peak level 99.9 %
Extraction speed 4.2 X
Track quality 100.0 %
Test CRC CDEF908F
Copy CRC CDEF908F
Accurately ripped (confidence 2) [DFECD908] (AR v2)
Copy OK
Track 10
Filename C:\EAC Rips\The Kenny Clarke-Francy Boland Big Band - Latin Kaleidoscope - Cuban Fever (1968)\10 - Cara Bruja.wav
Pre-gap length 0:00:02.65
Peak level 99.9 %
Extraction speed 3.9 X
Track quality 100.0 %
Test CRC 7A41126F
Copy CRC 7A41126F
Accurately ripped (confidence 2) [4FD7D576] (AR v2)
Copy OK
Track 11
Filename C:\EAC Rips\The Kenny Clarke-Francy Boland Big Band - Latin Kaleidoscope - Cuban Fever (1968)\11 - Crespusculo Y Aurora.wav
Pre-gap length 0:00:02.65
Peak level 99.9 %
Extraction speed 4.7 X
Track quality 100.0 %
Test CRC 28E6D7DC
Copy CRC 28E6D7DC
Accurately ripped (confidence 2) [07111924] (AR v2)
Copy OK
All tracks accurately ripped
No errors occurred
End of status report
---- CUETools DB Plugin V2.1.6
[CTDB TOCID: dpz_KIc0FQYkMUtMF5IZie33c_s-] found
Submit result: dpz_KIc0FQYkMUtMF5IZie33c_s- has been confirmed
Track | CTDB Status
1 | (2/2) Accurately ripped
2 | (2/2) Accurately ripped
3 | (2/2) Accurately ripped
4 | (2/2) Accurately ripped
5 | (2/2) Accurately ripped
6 | (2/2) Accurately ripped
7 | (2/2) Accurately ripped
8 | (2/2) Accurately ripped
9 | (2/2) Accurately ripped
10 | (2/2) Accurately ripped
11 | (2/2) Accurately ripped
==== Log checksum C04B7439EABF2273008F85D8259E8782E900135C9AA4B46398D49C31D077BD9F ====
 
Содержание индексной карты (.CUE)
REM GENRE Jazz
REM DATE 1968
REM DISCID 8F08ED0B
REM COMMENT "ExactAudioCopy v1.0b6"
CATALOG 0602527592015
PERFORMER "The Kenny Clarke-Francy Boland Big Band"
TITLE "Latin Kaleidoscope, Cuban Fever"
FILE "01 - Un Graso de Areia.wav" WAVE
TRACK 01 AUDIO
TITLE "Un Graso de Areia"
PERFORMER "The Kenny Clarke-Francy Boland Big Band"
ISRC DEA116902110
INDEX 01 00:00:00
FILE "02 - Duas Rosas.wav" WAVE
TRACK 02 AUDIO
TITLE "Duas Rosas"
PERFORMER "The Kenny Clarke-Francy Boland Big Band"
ISRC DEA116902120
INDEX 01 00:00:00
TRACK 03 AUDIO
TITLE "A Rosa Negra"
PERFORMER "The Kenny Clarke-Francy Boland Big Band"
ISRC DEA116902130
INDEX 00 02:26:40
FILE "03 - A Rosa Negra.wav" WAVE
INDEX 01 00:00:00
FILE "04 - Uma Fita de Tres Cores.wav" WAVE
TRACK 04 AUDIO
TITLE "Uma Fita de Tres Cores"
PERFORMER "The Kenny Clarke-Francy Boland Big Band"
ISRC DEA116902140
INDEX 01 00:00:00
TRACK 05 AUDIO
TITLE "Olhos Negros"
PERFORMER "The Kenny Clarke-Francy Boland Big Band"
ISRC DEA116902150
INDEX 00 03:59:37
FILE "05 - Olhos Negros.wav" WAVE
INDEX 01 00:00:00
TRACK 06 AUDIO
TITLE "Ramo de Flores"
PERFORMER "The Kenny Clarke-Francy Boland Big Band"
ISRC DEA116902160
INDEX 00 04:00:06
FILE "06 - Ramo de Flores.wav" WAVE
INDEX 01 00:00:00
TRACK 07 AUDIO
TITLE "Fiebre Cuban"
PERFORMER "The Kenny Clarke-Francy Boland Big Band"
ISRC DEA116902170
INDEX 00 02:01:19
FILE "07 - Fiebre Cuban.wav" WAVE
INDEX 01 00:00:00
FILE "08 - Mambo de Las Brujas.wav" WAVE
TRACK 08 AUDIO
TITLE "Mambo de Las Brujas"
PERFORMER "The Kenny Clarke-Francy Boland Big Band"
ISRC DEA116902180
INDEX 01 00:00:00
FILE "09 - Strano Sueno.wav" WAVE
TRACK 09 AUDIO
TITLE "Strano Sueno"
PERFORMER "The Kenny Clarke-Francy Boland Big Band"
ISRC DEA116902190
INDEX 01 00:00:00
TRACK 10 AUDIO
TITLE "Cara Bruja"
PERFORMER "The Kenny Clarke-Francy Boland Big Band"
ISRC DEA116902200
INDEX 00 04:03:20
FILE "10 - Cara Bruja.wav" WAVE
INDEX 01 00:00:00
TRACK 11 AUDIO
TITLE "Crespusculo y Aurora"
PERFORMER "The Kenny Clarke-Francy Boland Big Band"
ISRC DEA116902210
INDEX 00 02:07:46
FILE "11 - Crespusculo y Aurora.wav" WAVE
INDEX 01 00:00:00
 
Отчет CUETools
[CUETools log; Date: 03.08.2015 14:19:16; Version: 2.1.5]
[CTDB TOCID: dpz_KIc0FQYkMUtMF5IZie33c_s-] found.
Track | CTDB Status
1 | (3/3) Accurately ripped
2 | (3/3) Accurately ripped
3 | (3/3) Accurately ripped
4 | (3/3) Accurately ripped
5 | (3/3) Accurately ripped
6 | (3/3) Accurately ripped
7 | (3/3) Accurately ripped
8 | (3/3) Accurately ripped
9 | (3/3) Accurately ripped
10 | (3/3) Accurately ripped
11 | (3/3) Accurately ripped
[AccurateRip ID: 000f2140-008274df-8f08ed0b] found.
Track [ CRC | V2 ] Status
01 [deabef04|81af9580] (2+2/4) Accurately ripped
02 [65e8ca62|5a423913] (2+2/4) Accurately ripped
03 [25cde1f7|d29fd746] (2+2/4) Accurately ripped
04 [2f67abf9|78e37b3d] (2+2/4) Accurately ripped
05 [a3d33574|a98f5794] (2+2/4) Accurately ripped
06 [47507c3c|a1cfd851] (2+2/4) Accurately ripped
07 [17126ac9|3b1fbb73] (2+2/4) Accurately ripped
08 [2db18e38|a331cd2c] (2+2/4) Accurately ripped
09 [47ac09da|dfecd908] (2+2/4) Accurately ripped
10 [07361d1b|4fd7d576] (2+2/4) Accurately ripped
11 [335cec4d|07111924] (2+2/4) Accurately ripped
Track Peak [ CRC32 ] [W/O NULL] [ LOG ]
-- 99,9 [564E9C5A] [3A16DB01]
01 99,9 [8225C05F] [409B02E2] CRC32
02 86,4 [D713D053] [DCF87D23] CRC32
03 99,9 [5644D4C2] [35BDA914] CRC32
04 99,9 [29FAF5CC] [3F9217D3] CRC32
05 97,3 [501FEDA7] [09E53DE6] CRC32
06 99,9 [C1265E6C] [D793CCBA] CRC32
07 99,9 [9A05C3ED] [9EE7E0CA] CRC32
08 99,9 [163BD4A8] [09F44278] CRC32
09 99,9 [CDEF908F] [16A18E1C] CRC32
10 99,9 [7A41126F] [542551DC] CRC32
11 99,9 [28E6D7DC] [A50CB5CD] CRC32
 
Об альбоме (сборнике)
One of the great latin jazz lps of the 60s and featuring who else but Sabu Martinez.Latin Kaleidoscope is comprised of two suites, with the band swinging on well-written parts to a panoply of well-used percussion elements .Boland recruited drummers Kenny Clare, Al "Tootie" Heath" and Sabu Martinez to add their percussion talents.Gary McFarland’s six-part "Latin Kaleidoscope" is a joy to discover – much as it was to first hear his solo creations and offers much evidence of his gifts. Boland, who added his own touches to this suite, never takes a solo throughout and is occasionally heard on harpsichord; a sensitive touch to sensitively considered music. And excellent solos are taken by Sahib Shihab ("Duas Rosas"), Ronnie Scott ("Uma Fita de Tres Cores") and Aki Persson ("Othos Negros")Francy Boland’s "Cuban Fever" is like a musical postcard of Cuba: powerful, colorful, exciting, where the unexpected is approached at every corner. The innate skill of Boland’s craft is most apparent here. Like the great jazz arrangers, he’s a scenarist, a master painter. Here the brasses cover more of the thematic canvas. But it is often the reeds that take solo honors (a nice contrast) – with the exception of the beautiful finale, "Crepusculo y Aurora" that benefits by a resonant Benny Bailey trumpet solo (Clarke’s clever shifting patterns are much in evidence here too).
-- Bacoso
 
Состав
Kenny Clarke - drums, co-leader
Francy Boland - piano, co-leader
Benny Bailey, Idrees Sulieman, Jimmy Deuchar, Dusko Gojkovic, Milo Pavlovic - trumpets
Ake Persson, Nat Peck, Erik Van Lier - trombones
Derek Humble, Phil Woods - alto saxophones
Johnny Griffin, Tony Coe, Ronnie Scott - tenor saxophones
Sahib Shihab - baritone saxophone
Jimmy Woode, Jean Warland - bass
Kenny Clare, Shake Keane, Tootie Heath, Tony Inzalaco, Sabu Martinez - percussion
Recorded at Lindstrom Studios, Cologne on August 28-29, 1968.
19:22
262
Нет комментариев. Ваш будет первым!