Поиск

(Latin jazz, Big Band) [CD] Tito Puente - Quatro: The Definitive Collection [5CD Box Set] - 2012, FLAC (tracks+.cue), lossless

(Latin jazz, Big Band) [CD] Tito Puente - Quatro: The Definitive Collection [5CD Box Set] - 2012, FLAC (tracks+.cue), lossless
Треклист:
Tito Puente - Quatro: The Definitive Collection [5CD Box Set]

Жанр: Latin jazz, Big Band
Носитель: CD
Год издания: 2012
Издатель (лейбл): Sony Music Latin
Номер по каталогу: 8872 546988 2
Аудиокодек: FLAC (*.flac)
Тип рипа: tracks+.cue
Битрейт аудио: lossless
Продолжительность: 02:48:13
Источник (релизер): ruskaval
Наличие сканов в содержимом раздачи: да 
 
 
Cuban Carnival (1956)
Продолжительность: 36:40
Треклист:
01. Elegua Chango (5:15)
02. Cual Es La Idea (What's The Idea) (3:22)
03. Pa Los Rumberos (For Dancers) (3:24)
04. Que Sera (What Is It?) (3:27)
05. Oye Mi Guaguanco (3:37)
06. Yambeque (Mambo Yambu) (3:48)
07. Happy Cha-Cha-Cha (2:36)
08. Mambo Buda (2:55)
09. Cha-Cha De Pollos (Cha-Cha For Chicks) (2:50)
10. Guaguanco Margarito (3:33)
11. Cuban Fantasy (1:55)
 
 
Лог создания рипа
X Lossless Decoder version 20130407 (143.0)
XLD extraction logfile from 2014-12-28 17:14:28 -0800
Tito Puente / Cuban Carnival
Used drive : HL-DT-ST DVDRW GA32N (revision KE06)
Media type : Pressed CD
Ripper mode : XLD Secure Ripper
Disable audio cache : OK for the drive with a cache less than 1375KiB
Make use of C2 pointers : NO
Read offset correction : 103
Max retry count : 100
Gap status : Analyzed, Appended (except HTOA)
TOC of the extracted CD
Track | Start | Length | Start sector | End sector
---------------------------------------------------------
1 | 00:00:32 | 05:14:38 | 32 | 23619
2 | 05:14:70 | 03:21:42 | 23620 | 38736
3 | 08:36:37 | 03:23:70 | 38737 | 54031
4 | 12:00:32 | 03:26:53 | 54032 | 69534
5 | 15:27:10 | 03:36:72 | 69535 | 85806
6 | 19:04:07 | 03:47:50 | 85807 | 102881
7 | 22:51:57 | 02:36:25 | 102882 | 114606
8 | 25:28:07 | 02:55:10 | 114607 | 127741
9 | 28:23:17 | 02:49:38 | 127742 | 140454
10 | 31:12:55 | 03:32:47 | 140455 | 156401
11 | 34:45:27 | 01:54:68 | 156402 | 165019
List of alternate offset correction values
# | Absolute | Relative | Confidence
------------------------------------------
1 | -2233 | -2336 | 2
AccurateRip Summary (DiscID: 00107657-008b5fe0-8e08980b)
Track 01 : OK (v2, confidence 2/6)
Track 02 : OK (v2, confidence 2/6)
Track 03 : OK (v2, confidence 2/6)
Track 04 : OK (v2, confidence 2/6)
Track 05 : OK (v2, confidence 2/6)
Track 06 : OK (v2, confidence 2/6)
Track 07 : OK (v2, confidence 2/6)
Track 08 : OK (v2, confidence 2/6)
Track 09 : OK (v2, confidence 2/6)
Track 10 : OK (v2, confidence 2/6)
Track 11 : OK (v2, confidence 2/6)
->All tracks accurately ripped.
All Tracks
Album gain : -4.61 dB
Peak : 0.835724
Statistics
Read error : 0
Jitter error (maybe fixed) : 0
Retry sector count : 0
Damaged sector count : 0
Track 01
Filename : /Volumes/OWC Mercury Elite Pro - #2/Needs something/ Music/Tito Puente - Quatro - The Definitive Collection (2012) [FLAC] {SonyLatin 8872 546988 2}/CD1/01 - Elegua Chango.flac
Pre-gap length : 00:02:32
Track gain : -5.16 dB
Peak : 0.835724
CRC32 hash (test run) : 1B2504E4
CRC32 hash : 1B2504E4
CRC32 hash (skip zero) : 2226C57E
AccurateRip v1 signature : DAB397C4
AccurateRip v2 signature : 90842F60
->Accurately ripped (v2, confidence 2/6)
Statistics
Read error : 0
Jitter error (maybe fixed) : 0
Retry sector count : 0
Damaged sector count : 0
Track 02
Filename : /Volumes/OWC Mercury Elite Pro - #2/Needs something/ Music/Tito Puente - Quatro - The Definitive Collection (2012) [FLAC] {SonyLatin 8872 546988 2}/CD1/02 - Cual Es La Idea (What's The Idea).flac
Pre-gap length : 00:02:00
Track gain : -5.69 dB
Peak : 0.833405
CRC32 hash (test run) : 76FA09FD
CRC32 hash : 76FA09FD
CRC32 hash (skip zero) : D1D89E15
AccurateRip v1 signature : 60903AF8
AccurateRip v2 signature : 52B9113F
->Accurately ripped (v2, confidence 2/6)
Statistics
Read error : 0
Jitter error (maybe fixed) : 0
Retry sector count : 0
Damaged sector count : 0
Track 03
Filename : /Volumes/OWC Mercury Elite Pro - #2/Needs something/ Music/Tito Puente - Quatro - The Definitive Collection (2012) [FLAC] {SonyLatin 8872 546988 2}/CD1/03 - Pa Los Rumberos (For Dancers).flac
Pre-gap length : 00:01:72
Track gain : -4.72 dB
Peak : 0.763550
CRC32 hash (test run) : 749B7D1F
CRC32 hash : 749B7D1F
CRC32 hash (skip zero) : 1D15718C
AccurateRip v1 signature : F4FCA642
AccurateRip v2 signature : 4AE669F5
->Accurately ripped (v2, confidence 2/6)
Statistics
Read error : 0
Jitter error (maybe fixed) : 0
Retry sector count : 0
Damaged sector count : 0
Track 04
Filename : /Volumes/OWC Mercury Elite Pro - #2/Needs something/ Music/Tito Puente - Quatro - The Definitive Collection (2012) [FLAC] {SonyLatin 8872 546988 2}/CD1/04 - Que Sera (What Is It).flac
Pre-gap length : 00:02:00
Track gain : -4.17 dB
Peak : 0.712830
CRC32 hash (test run) : 434DDBEE
CRC32 hash : 434DDBEE
CRC32 hash (skip zero) : 97E725FF
AccurateRip v1 signature : 4C3E34A4
AccurateRip v2 signature : 8D29853C
->Accurately ripped (v2, confidence 2/6)
Statistics
Read error : 0
Jitter error (maybe fixed) : 0
Retry sector count : 0
Damaged sector count : 0
Track 05
Filename : /Volumes/OWC Mercury Elite Pro - #2/Needs something/ Music/Tito Puente - Quatro - The Definitive Collection (2012) [FLAC] {SonyLatin 8872 546988 2}/CD1/05 - Oye Mi Guaguanco.flac
Pre-gap length : 00:02:00
Track gain : -4.10 dB
Peak : 0.773193
CRC32 hash (test run) : FAB995E6
CRC32 hash : FAB995E6
CRC32 hash (skip zero) : 1C279760
AccurateRip v1 signature : CBDF0B3C
AccurateRip v2 signature : D693286D
->Accurately ripped (v2, confidence 2/6)
Statistics
Read error : 0
Jitter error (maybe fixed) : 0
Retry sector count : 0
Damaged sector count : 0
Track 06
Filename : /Volumes/OWC Mercury Elite Pro - #2/Needs something/ Music/Tito Puente - Quatro - The Definitive Collection (2012) [FLAC] {SonyLatin 8872 546988 2}/CD1/06 - Yambeque .flac
Pre-gap length : 00:02:00
Track gain : -3.08 dB
Peak : 0.768921
CRC32 hash (test run) : 6A2FEF83
CRC32 hash : 6A2FEF83
CRC32 hash (skip zero) : 7A0CCC71
AccurateRip v1 signature : 086526A6
AccurateRip v2 signature : 9F2619AB
->Accurately ripped (v2, confidence 2/6)
Statistics
Read error : 0
Jitter error (maybe fixed) : 0
Retry sector count : 0
Damaged sector count : 0
Track 07
Filename : /Volumes/OWC Mercury Elite Pro - #2/Needs something/ Music/Tito Puente - Quatro - The Definitive Collection (2012) [FLAC] {SonyLatin 8872 546988 2}/CD1/07 - Happy Cha-Cha-Cha.flac
Pre-gap length : 00:02:00
Track gain : -2.72 dB
Peak : 0.603241
CRC32 hash (test run) : 97B81A97
CRC32 hash : 97B81A97
CRC32 hash (skip zero) : 1223CCC5
AccurateRip v1 signature : 552D54F6
AccurateRip v2 signature : C1EC2CEC
->Accurately ripped (v2, confidence 2/6)
Statistics
Read error : 0
Jitter error (maybe fixed) : 0
Retry sector count : 0
Damaged sector count : 0
Track 08
Filename : /Volumes/OWC Mercury Elite Pro - #2/Needs something/ Music/Tito Puente - Quatro - The Definitive Collection (2012) [FLAC] {SonyLatin 8872 546988 2}/CD1/08 - Mambo Buda.flac
Pre-gap length : 00:02:00
Track gain : -4.67 dB
Peak : 0.648560
CRC32 hash (test run) : 0A31B302
CRC32 hash : 0A31B302
CRC32 hash (skip zero) : 7F3332AE
AccurateRip v1 signature : 6CEB3DF4
AccurateRip v2 signature : BF70052E
->Accurately ripped (v2, confidence 2/6)
Statistics
Read error : 0
Jitter error (maybe fixed) : 0
Retry sector count : 0
Damaged sector count : 0
Track 09
Filename : /Volumes/OWC Mercury Elite Pro - #2/Needs something/ Music/Tito Puente - Quatro - The Definitive Collection (2012) [FLAC] {SonyLatin 8872 546988 2}/CD1/09 - Cha-Cha Cha De Los Pollos (Cha-Cha For Chicks).flac
Pre-gap length : 00:02:00
Track gain : -1.95 dB
Peak : 0.617554
CRC32 hash (test run) : 1C3AB92D
CRC32 hash : 1C3AB92D
CRC32 hash (skip zero) : BDE41C00
AccurateRip v1 signature : 063B0A1A
AccurateRip v2 signature : B86A941C
->Accurately ripped (v2, confidence 2/6)
Statistics
Read error : 0
Jitter error (maybe fixed) : 0
Retry sector count : 0
Damaged sector count : 0
Track 10
Filename : /Volumes/OWC Mercury Elite Pro - #2/Needs something/ Music/Tito Puente - Quatro - The Definitive Collection (2012) [FLAC] {SonyLatin 8872 546988 2}/CD1/10 - Guaguanco Margarito.flac
Pre-gap length : 00:02:00
Track gain : -4.41 dB
Peak : 0.735443
CRC32 hash (test run) : 9B634D26
CRC32 hash : 9B634D26
CRC32 hash (skip zero) : 63D886FB
AccurateRip v1 signature : 9F859924
AccurateRip v2 signature : 4E9AE4BD
->Accurately ripped (v2, confidence 2/6)
Statistics
Read error : 0
Jitter error (maybe fixed) : 0
Retry sector count : 0
Damaged sector count : 0
Track 11
Filename : /Volumes/OWC Mercury Elite Pro - #2/Needs something/ Music/Tito Puente - Quatro - The Definitive Collection (2012) [FLAC] {SonyLatin 8872 546988 2}/CD1/11 - Cuban Fantasy.flac
Pre-gap length : 00:02:00
Track gain : -2.25 dB
Peak : 0.616730
CRC32 hash (test run) : 5E7236EF
CRC32 hash : 5E7236EF
CRC32 hash (skip zero) : 5B2E729D
AccurateRip v1 signature : D4E8DF27
AccurateRip v2 signature : 965B0CF5
->Accurately ripped (v2, confidence 2/6)
Statistics
Read error : 0
Jitter error (maybe fixed) : 0
Retry sector count : 0
Damaged sector count : 0
No errors occurred
End of status report
-----BEGIN XLD SIGNATURE-----
Qyw6gr6GdWEJg42jCcZTSMnKRZWP1OrpGXqggdca3gzPNp_e1NYPRQ1S2QImQSTyJPH.QM8g1zlhaWqIzw8kD.KlA4Xk4j9sRESnCVG
-----END XLD SIGNATURE-----
 
Содержание индексной карты (.CUE)
TITLE "Cuban Carnival"
PERFORMER "Tito Puente"
REM GENRE Latin Jazz
REM DATE 1956
REM DISCID 8E08980B
FILE "01 - Elegua Chango.wav" WAVE
TRACK 01 AUDIO
TITLE "Elegua Chango"
PREGAP 00:00:32
INDEX 01 00:00:00
TRACK 02 AUDIO
TITLE "Cual Es La Idea (What's The Idea)"
INDEX 00 05:12:38
FILE "02 - Cual Es La Idea (What's The Idea).wav" WAVE
INDEX 01 00:00:00
TRACK 03 AUDIO
TITLE "Pa Los Rumberos (For Dancers)"
INDEX 00 03:19:45
FILE "03 - Pa Los Rumberos (For Dancers).wav" WAVE
INDEX 01 00:00:00
TRACK 04 AUDIO
TITLE "Que Sera (What Is It?)"
INDEX 00 03:21:70
FILE "04 - Que Sera (What Is It).wav" WAVE
INDEX 01 00:00:00
TRACK 05 AUDIO
TITLE "Oye Mi Guaguanco"
INDEX 00 03:24:53
FILE "05 - Oye Mi Guaguanco.wav" WAVE
INDEX 01 00:00:00
TRACK 06 AUDIO
TITLE "Yambeque (Mambo Yambu)"
INDEX 00 03:34:72
FILE "06 - Yambeque (Mambo Yambu).wav" WAVE
INDEX 01 00:00:00
TRACK 07 AUDIO
TITLE "Happy Cha-Cha-Cha"
INDEX 00 03:45:50
FILE "07 - Happy Cha-Cha-Cha.wav" WAVE
INDEX 01 00:00:00
TRACK 08 AUDIO
TITLE "Mambo Buda"
INDEX 00 02:34:25
FILE "08 - Mambo Buda.wav" WAVE
INDEX 01 00:00:00
TRACK 09 AUDIO
TITLE "Cha-Cha De Pollos (Cha-Cha For Chicks)"
INDEX 00 02:53:10
FILE "09 - Cha-Cha De Pollos (Cha-Cha For Chicks).wav" WAVE
INDEX 01 00:00:00
TRACK 10 AUDIO
TITLE "Guaguanco Margarito"
INDEX 00 02:47:38
FILE "10 - Guaguanco Margarito.wav" WAVE
INDEX 01 00:00:00
TRACK 11 AUDIO
TITLE "Cuban Fantasy"
INDEX 00 03:30:47
FILE "11 - Cuban Fantasy.wav" WAVE
INDEX 01 00:00:00
 
Night Beat (1957)
Продолжительность: 36:54
Треклист:
01. Night Beat (2:59)
02. Mambo Beat (4:11)
03. Sea Breeze (3:24)
04. Emerald Beach (3:33)
05. The Late, Late Scene (2:54)
06. Carioca (2:19)
07. Night Ritual (7:17)
08. Malibu Beat (2:30)
09. Flying Down To Rio (2:22)
10. Night Hawk (2:34)
11. Live A Little (2:52)
 
 
Лог создания рипа
X Lossless Decoder version 20130407 (143.0)
XLD extraction logfile from 2014-09-03 11:58:00 -0700
Tito Puente / Night Beat
Used drive : HL-DT-ST DVDRW GA32N (revision KE06)
Media type : Pressed CD
Ripper mode : XLD Secure Ripper
Disable audio cache : OK for the drive with a cache less than 1375KiB
Make use of C2 pointers : NO
Read offset correction : 103
Max retry count : 100
Gap status : Analyzed, Appended (except HTOA)
TOC of the extracted CD
Track | Start | Length | Start sector | End sector
---------------------------------------------------------
1 | 00:00:00 | 02:58:43 | 0 | 13392
2 | 02:58:43 | 04:10:41 | 13393 | 32183
3 | 07:09:09 | 03:24:08 | 32184 | 47491
4 | 10:33:17 | 03:32:68 | 47492 | 63459
5 | 14:06:10 | 02:54:28 | 63460 | 76537
6 | 17:00:38 | 02:18:74 | 76538 | 86961
7 | 19:19:37 | 07:17:26 | 86962 | 119762
8 | 26:36:63 | 02:29:48 | 119763 | 130985
9 | 29:06:36 | 02:21:63 | 130986 | 141623
10 | 31:28:24 | 02:33:56 | 141624 | 153154
11 | 34:02:05 | 02:52:21 | 153155 | 166075
AccurateRip Summary (DiscID: 000fbdd1-0088407c-8a08a60b)
Track 01 : OK (v2, confidence 2/2)
Track 02 : OK (v2, confidence 2/2)
Track 03 : OK (v2, confidence 2/2)
Track 04 : OK (v2, confidence 2/2)
Track 05 : OK (v2, confidence 2/2)
Track 06 : OK (v2, confidence 2/2)
Track 07 : OK (v2, confidence 2/2)
Track 08 : OK (v2, confidence 2/2)
Track 09 : OK (v2, confidence 2/2)
Track 10 : OK (v2, confidence 2/2)
Track 11 : OK (v2, confidence 2/2)
->All tracks accurately ripped.
All Tracks
Album gain : -8.79 dB
Peak : 0.994934
Statistics
Read error : 0
Jitter error (maybe fixed) : 0
Retry sector count : 0
Damaged sector count : 0
Track 01
Filename : /Volumes/OWC Mercury Elite Pro - #2/Needs something/ Music/Tito Puente - Quatro - The Definitive Collection (2012) [FLAC] {SonyLatin 8872 546988 2}/CD2/01 - Night Beat.flac
Pre-gap length : 00:02:00
Track gain : -8.20 dB
Peak : 0.978851
CRC32 hash (test run) : CF636FB8
CRC32 hash : CF636FB8
CRC32 hash (skip zero) : 5B994F81
AccurateRip v1 signature : A0844A0C
AccurateRip v2 signature : 6C216860
->Accurately ripped (v2, confidence 2/2)
Statistics
Read error : 0
Jitter error (maybe fixed) : 0
Retry sector count : 0
Damaged sector count : 0
Track 02
Filename : /Volumes/OWC Mercury Elite Pro - #2/Needs something/ Music/Tito Puente - Quatro - The Definitive Collection (2012) [FLAC] {SonyLatin 8872 546988 2}/CD2/02 - Mambo Beat.flac
Pre-gap length : 00:03:25
Track gain : -6.97 dB
Peak : 0.965759
CRC32 hash (test run) : C3D31E09
CRC32 hash : C3D31E09
CRC32 hash (skip zero) : E1A4B4E0
AccurateRip v1 signature : 055A1CDB
AccurateRip v2 signature : AE49FC37
->Accurately ripped (v2, confidence 2/2)
Statistics
Read error : 0
Jitter error (maybe fixed) : 0
Retry sector count : 0
Damaged sector count : 0
Track 03
Filename : /Volumes/OWC Mercury Elite Pro - #2/Needs something/ Music/Tito Puente - Quatro - The Definitive Collection (2012) [FLAC] {SonyLatin 8872 546988 2}/CD2/03 - Sea Breeze.flac
Pre-gap length : 00:02:06
Track gain : -8.44 dB
Peak : 0.944031
CRC32 hash (test run) : 1B8FC12A
CRC32 hash : 1B8FC12A
CRC32 hash (skip zero) : FDDDFD6F
AccurateRip v1 signature : E392E8FC
AccurateRip v2 signature : 9AFE074A
->Accurately ripped (v2, confidence 2/2)
Statistics
Read error : 0
Jitter error (maybe fixed) : 0
Retry sector count : 0
Damaged sector count : 0
Track 04
Filename : /Volumes/OWC Mercury Elite Pro - #2/Needs something/ Music/Tito Puente - Quatro - The Definitive Collection (2012) [FLAC] {SonyLatin 8872 546988 2}/CD2/04 - Emerald Beach.flac
Pre-gap length : 00:03:25
Track gain : -8.79 dB
Peak : 0.965759
CRC32 hash (test run) : 1F31E10B
CRC32 hash : 1F31E10B
CRC32 hash (skip zero) : B826ABA7
AccurateRip v1 signature : 7CB4FE54
AccurateRip v2 signature : 52EEF548
->Accurately ripped (v2, confidence 2/2)
Statistics
Read error : 0
Jitter error (maybe fixed) : 0
Retry sector count : 0
Damaged sector count : 0
Track 05
Filename : /Volumes/OWC Mercury Elite Pro - #2/Needs something/ Music/Tito Puente - Quatro - The Definitive Collection (2012) [FLAC] {SonyLatin 8872 546988 2}/CD2/05 - The Late, Late Scene.flac
Pre-gap length : 00:03:32
Track gain : -8.65 dB
Peak : 0.979797
CRC32 hash (test run) : 5CFC8E69
CRC32 hash : 5CFC8E69
CRC32 hash (skip zero) : 18EB7C67
AccurateRip v1 signature : 053CC51F
AccurateRip v2 signature : E45D3791
->Accurately ripped (v2, confidence 2/2)
Statistics
Read error : 0
Jitter error (maybe fixed) : 0
Retry sector count : 0
Damaged sector count : 0
Track 06
Filename : /Volumes/OWC Mercury Elite Pro - #2/Needs something/ Music/Tito Puente - Quatro - The Definitive Collection (2012) [FLAC] {SonyLatin 8872 546988 2}/CD2/06 - Carioca.flac
Pre-gap length : 00:03:29
Track gain : -8.56 dB
Peak : 0.965759
CRC32 hash (test run) : 0BC4E93E
CRC32 hash : 0BC4E93E
CRC32 hash (skip zero) : E6CBDC0B
AccurateRip v1 signature : B588C4BF
AccurateRip v2 signature : FE333345
->Accurately ripped (v2, confidence 2/2)
Statistics
Read error : 0
Jitter error (maybe fixed) : 0
Retry sector count : 0
Damaged sector count : 0
Track 07
Filename : /Volumes/OWC Mercury Elite Pro - #2/Needs something/ Music/Tito Puente - Quatro - The Definitive Collection (2012) [FLAC] {SonyLatin 8872 546988 2}/CD2/07 - Night Ritual.flac
Pre-gap length : 00:03:31
Track gain : -8.30 dB
Peak : 0.969208
CRC32 hash (test run) : 5B774433
CRC32 hash : 5B774433
CRC32 hash (skip zero) : 2A47457B
AccurateRip v1 signature : 3C2236B2
AccurateRip v2 signature : B80D1A57
->Accurately ripped (v2, confidence 2/2)
Statistics
Read error : 0
Jitter error (maybe fixed) : 0
Retry sector count : 0
Damaged sector count : 0
Track 08
Filename : /Volumes/OWC Mercury Elite Pro - #2/Needs something/ Music/Tito Puente - Quatro - The Definitive Collection (2012) [FLAC] {SonyLatin 8872 546988 2}/CD2/08 - Malibu Beat.flac
Pre-gap length : 00:03:33
Track gain : -8.96 dB
Peak : 0.974274
CRC32 hash (test run) : EE2BF2BC
CRC32 hash : EE2BF2BC
CRC32 hash (skip zero) : 291C348B
AccurateRip v1 signature : 7D00F674
AccurateRip v2 signature : 114B397E
->Accurately ripped (v2, confidence 2/2)
Statistics
Read error : 0
Jitter error (maybe fixed) : 0
Retry sector count : 0
Damaged sector count : 0
Track 09
Filename : /Volumes/OWC Mercury Elite Pro - #2/Needs something/ Music/Tito Puente - Quatro - The Definitive Collection (2012) [FLAC] {SonyLatin 8872 546988 2}/CD2/09 - Flying Down to Rio.flac
Pre-gap length : 00:01:71
Track gain : -10.60 dB
Peak : 0.966553
CRC32 hash (test run) : F409894D
CRC32 hash : F409894D
CRC32 hash (skip zero) : F3B70C75
AccurateRip v1 signature : C95249D3
AccurateRip v2 signature : 7AB4BCBF
->Accurately ripped (v2, confidence 2/2)
Statistics
Read error : 0
Jitter error (maybe fixed) : 0
Retry sector count : 0
Damaged sector count : 0
Track 10
Filename : /Volumes/OWC Mercury Elite Pro - #2/Needs something/ Music/Tito Puente - Quatro - The Definitive Collection (2012) [FLAC] {SonyLatin 8872 546988 2}/CD2/10 - Night Hawk.flac
Pre-gap length : 00:03:38
Track gain : -9.14 dB
Peak : 0.994934
CRC32 hash (test run) : E976EFDC
CRC32 hash : E976EFDC
CRC32 hash (skip zero) : 19B77A25
AccurateRip v1 signature : A9266A9C
AccurateRip v2 signature : 99B8F6B7
->Accurately ripped (v2, confidence 2/2)
Statistics
Read error : 0
Jitter error (maybe fixed) : 0
Retry sector count : 0
Damaged sector count : 0
Track 11
Filename : /Volumes/OWC Mercury Elite Pro - #2/Needs something/ Music/Tito Puente - Quatro - The Definitive Collection (2012) [FLAC] {SonyLatin 8872 546988 2}/CD2/11 - Live a Little.flac
Pre-gap length : 00:03:35
Track gain : -9.28 dB
Peak : 0.965759
CRC32 hash (test run) : 7E5DED67
CRC32 hash : 7E5DED67
CRC32 hash (skip zero) : 00A69477
AccurateRip v1 signature : 3FF800BE
AccurateRip v2 signature : BE9C153A
->Accurately ripped (v2, confidence 2/2)
Statistics
Read error : 0
Jitter error (maybe fixed) : 0
Retry sector count : 0
Damaged sector count : 0
No errors occurred
End of status report
-----BEGIN XLD SIGNATURE-----
DZQI0CR5_tu3yZbqlc6tXdBH8UE_93eWp9fPi5Zq4j.sKLS71qV3HK8bDMf8W_AcGTclal7HzrCm9Q7b_3qcj2wgv3N.aUzxP2Gpjsq
-----END XLD SIGNATURE-----
 
Содержание индексной карты (.CUE)
TITLE "Night Beat"
PERFORMER "Tito Puente"
CATALOG 0887254980421
REM GENRE Latin Jazz
REM DATE 1957
REM DISCID 8A08A60B
FILE "01 - Night Beat.wav" WAVE
TRACK 01 AUDIO
TITLE "Night Beat"
ISRC USBL10002327
INDEX 01 00:00:00
TRACK 02 AUDIO
TITLE "Mambo Beat"
ISRC USBL10002309
INDEX 00 02:55:18
FILE "02 - Mambo Beat.wav" WAVE
INDEX 01 00:00:00
TRACK 03 AUDIO
TITLE "Sea Breeze"
ISRC USBL10100190
INDEX 00 04:08:35
FILE "03 - Sea Breeze.wav" WAVE
INDEX 01 00:00:00
TRACK 04 AUDIO
TITLE "Emerald Beach"
ISRC USBL10002325
INDEX 00 03:20:58
FILE "04 - Emerald Beach.wav" WAVE
INDEX 01 00:00:00
TRACK 05 AUDIO
TITLE "The Late, Late Scene"
ISRC USBL10002323
INDEX 00 03:29:36
FILE "05 - The Late, Late Scene.wav" WAVE
INDEX 01 00:00:00
TRACK 06 AUDIO
TITLE "Carioca"
ISRC USBL10002328
INDEX 00 02:50:74
FILE "06 - Carioca.wav" WAVE
INDEX 01 00:00:00
TRACK 07 AUDIO
TITLE "Night Ritual"
ISRC USBL10001421
INDEX 00 02:15:43
FILE "07 - Night Ritual.wav" WAVE
INDEX 01 00:00:00
TRACK 08 AUDIO
TITLE "Malibu Beat"
ISRC USBL10002324
INDEX 00 07:13:68
FILE "08 - Malibu Beat.wav" WAVE
INDEX 01 00:00:00
TRACK 09 AUDIO
TITLE "Flying Down To Rio"
ISRC USBL10001394
INDEX 00 02:27:52
FILE "09 - Flying Down To Rio.wav" WAVE
INDEX 01 00:00:00
TRACK 10 AUDIO
TITLE "Night Hawk"
ISRC USBL10002320
INDEX 00 02:18:25
FILE "10 - Night Hawk.wav" WAVE
INDEX 01 00:00:00
TRACK 11 AUDIO
TITLE "Live A Little"
ISRC USBL10002326
INDEX 00 02:30:21
FILE "11 - Live A Little.wav" WAVE
INDEX 01 00:00:00
 
Dance Mania (1958)
Продолжительность: 38:39
Треклист:
01. El Cayuco (2:38)
02. Complicacion (3:23)
03. 3-D Mambo (2:26)
04. Llego Mijan (3:14)
05. Cuando Te Vea (Guaguanco) (4:16)
06. Hong Kong Mambo (3:48)
07. Mambo Gozon (2:48)
08. Mi Chiquita Quiere Bembe (3:58)
09. Varsity Drag (2:53)
10. Estoy Siempre Junto A Ti (3:14)
11. Agua Limpia Todo (2:57)
12. Saca Tu Mujer (3:05)
 
 
Лог создания рипа
X Lossless Decoder version 20130407 (143.0)
XLD extraction logfile from 2014-09-03 14:07:10 -0700
Tito Puente / Dance Mania [RM 1991]
Used drive : HL-DT-ST DVDRW GA32N (revision KE06)
Media type : Pressed CD
Ripper mode : XLD Secure Ripper
Disable audio cache : OK for the drive with a cache less than 1375KiB
Make use of C2 pointers : NO
Read offset correction : 103
Max retry count : 100
Gap status : Analyzed, Appended (except HTOA)
TOC of the extracted CD
Track | Start | Length | Start sector | End sector
---------------------------------------------------------
1 | 00:00:00 | 02:38:02 | 0 | 11851
2 | 02:38:02 | 03:23:13 | 11852 | 27089
3 | 06:01:15 | 02:25:60 | 27090 | 38024
4 | 08:27:00 | 03:14:07 | 38025 | 52581
5 | 11:41:07 | 04:15:45 | 52582 | 71751
6 | 15:56:52 | 03:48:20 | 71752 | 88871
7 | 19:44:72 | 02:47:65 | 88872 | 101461
8 | 22:32:62 | 03:57:50 | 101462 | 119286
9 | 26:30:37 | 02:52:65 | 119287 | 132251
10 | 29:23:27 | 03:14:15 | 132252 | 146816
11 | 32:37:42 | 02:57:08 | 146817 | 160099
12 | 35:34:50 | 03:04:62 | 160100 | 173961
List of alternate offset correction values
# | Absolute | Relative | Confidence
------------------------------------------
1 | 101 | -2 | 15
2 | 487 | 384 | 12
3 | 752 | 649 | 3
AccurateRip Summary (DiscID: 001126d5-00a168ad-a8090f0c)
Track 01 : OK (v2, confidence 2/30)
Track 02 : OK (v2, confidence 2/31)
Track 03 : OK (v2, confidence 2/31)
Track 04 : OK (v2, confidence 2/31)
Track 05 : OK (v2, confidence 2/32)
Track 06 : OK (v2, confidence 2/31)
Track 07 : OK (v2, confidence 2/31)
Track 08 : OK (v2, confidence 2/32)
Track 09 : OK (v2, confidence 2/31)
Track 10 : OK (v2, confidence 2/31)
Track 11 : OK (v2, confidence 2/31)
Track 12 : OK (v2, confidence 2/31)
->All tracks accurately ripped.
All Tracks
Album gain : -6.29 dB
Peak : 0.942261
Statistics
Read error : 0
Jitter error (maybe fixed) : 0
Retry sector count : 0
Damaged sector count : 0
Track 01
Filename : /Volumes/OWC Mercury Elite Pro - #2/Needs something/ Music/Tito Puente - Quatro - The Definitive Collection (2012) [FLAC] {SonyLatin 8872 546988 2}/CD3/01 - El Cayuco.flac
Pre-gap length : 00:02:00
Track gain : -5.54 dB
Peak : 0.900116
CRC32 hash (test run) : 51C84D5C
CRC32 hash : 51C84D5C
CRC32 hash (skip zero) : 1B0C1A68
AccurateRip v1 signature : BCCFA751
AccurateRip v2 signature : E1F91566
->Accurately ripped (v2, confidence 2/30)
Statistics
Read error : 0
Jitter error (maybe fixed) : 0
Retry sector count : 0
Damaged sector count : 0
Track 02
Filename : /Volumes/OWC Mercury Elite Pro - #2/Needs something/ Music/Tito Puente - Quatro - The Definitive Collection (2012) [FLAC] {SonyLatin 8872 546988 2}/CD3/02 - Complicacion.flac
Pre-gap length : 00:02:25
Track gain : -5.37 dB
Peak : 0.812500
CRC32 hash (test run) : BC687691
CRC32 hash : BC687691
CRC32 hash (skip zero) : 60DCE92D
AccurateRip v1 signature : C73F4F4D
AccurateRip v2 signature : 141BAF93
->Accurately ripped (v2, confidence 2/31)
Statistics
Read error : 0
Jitter error (maybe fixed) : 0
Retry sector count : 0
Damaged sector count : 0
Track 03
Filename : /Volumes/OWC Mercury Elite Pro - #2/Needs something/ Music/Tito Puente - Quatro - The Definitive Collection (2012) [FLAC] {SonyLatin 8872 546988 2}/CD3/03 - 3-D Mambo.flac
Pre-gap length : 00:02:25
Track gain : -6.05 dB
Peak : 0.917114
CRC32 hash (test run) : 94D003A2
CRC32 hash : 94D003A2
CRC32 hash (skip zero) : 516A6597
AccurateRip v1 signature : 99CCCA3A
AccurateRip v2 signature : B33C9555
->Accurately ripped (v2, confidence 2/31)
Statistics
Read error : 0
Jitter error (maybe fixed) : 0
Retry sector count : 0
Damaged sector count : 0
Track 04
Filename : /Volumes/OWC Mercury Elite Pro - #2/Needs something/ Music/Tito Puente - Quatro - The Definitive Collection (2012) [FLAC] {SonyLatin 8872 546988 2}/CD3/04 - Llego Mijan.flac
Pre-gap length : 00:02:25
Track gain : -6.13 dB
Peak : 0.888062
CRC32 hash (test run) : C0CE4F86
CRC32 hash : C0CE4F86
CRC32 hash (skip zero) : 123A6EB5
AccurateRip v1 signature : 1E1E3409
AccurateRip v2 signature : 55BEA350
->Accurately ripped (v2, confidence 2/31)
Statistics
Read error : 0
Jitter error (maybe fixed) : 0
Retry sector count : 0
Damaged sector count : 0
Track 05
Filename : /Volumes/OWC Mercury Elite Pro - #2/Needs something/ Music/Tito Puente - Quatro - The Definitive Collection (2012) [FLAC] {SonyLatin 8872 546988 2}/CD3/05 - Cuando te Vea.flac
Pre-gap length : 00:02:25
Track gain : -6.71 dB
Peak : 0.926300
CRC32 hash (test run) : 82F74648
CRC32 hash : 82F74648
CRC32 hash (skip zero) : 0B0BE119
AccurateRip v1 signature : C40E3E91
AccurateRip v2 signature : 085F5312
->Accurately ripped (v2, confidence 2/32)
Statistics
Read error : 0
Jitter error (maybe fixed) : 0
Retry sector count : 0
Damaged sector count : 0
Track 06
Filename : /Volumes/OWC Mercury Elite Pro - #2/Needs something/ Music/Tito Puente - Quatro - The Definitive Collection (2012) [FLAC] {SonyLatin 8872 546988 2}/CD3/06 - Hong Kong Mambo.flac
Pre-gap length : 00:02:25
Track gain : -5.84 dB
Peak : 0.864380
CRC32 hash (test run) : F123600F
CRC32 hash : F123600F
CRC32 hash (skip zero) : 31A3DC50
AccurateRip v1 signature : 06ECFCFA
AccurateRip v2 signature : 5F48A554
->Accurately ripped (v2, confidence 2/31)
Statistics
Read error : 0
Jitter error (maybe fixed) : 0
Retry sector count : 0
Damaged sector count : 0
Track 07
Filename : /Volumes/OWC Mercury Elite Pro - #2/Needs something/ Music/Tito Puente - Quatro - The Definitive Collection (2012) [FLAC] {SonyLatin 8872 546988 2}/CD3/07 - Mambo Gozon.flac
Pre-gap length : 00:02:25
Track gain : -6.44 dB
Peak : 0.883331
CRC32 hash (test run) : 37E24DA9
CRC32 hash : 37E24DA9
CRC32 hash (skip zero) : B526A208
AccurateRip v1 signature : F07A013A
AccurateRip v2 signature : 96FD9186
->Accurately ripped (v2, confidence 2/31)
Statistics
Read error : 0
Jitter error (maybe fixed) : 0
Retry sector count : 0
Damaged sector count : 0
Track 08
Filename : /Volumes/OWC Mercury Elite Pro - #2/Needs something/ Music/Tito Puente - Quatro - The Definitive Collection (2012) [FLAC] {SonyLatin 8872 546988 2}/CD3/08 - Mi chiquita quiere Bembe.flac
Pre-gap length : 00:02:25
Track gain : -5.62 dB
Peak : 0.942261
CRC32 hash (test run) : 5A87E0FE
CRC32 hash : 5A87E0FE
CRC32 hash (skip zero) : B0D0CCF5
AccurateRip v1 signature : 20BF695A
AccurateRip v2 signature : 6863E3D9
->Accurately ripped (v2, confidence 2/32)
Statistics
Read error : 0
Jitter error (maybe fixed) : 0
Retry sector count : 0
Damaged sector count : 0
Track 09
Filename : /Volumes/OWC Mercury Elite Pro - #2/Needs something/ Music/Tito Puente - Quatro - The Definitive Collection (2012) [FLAC] {SonyLatin 8872 546988 2}/CD3/09 - Varsity Drag.flac
Pre-gap length : 00:02:25
Track gain : -7.05 dB
Peak : 0.884064
CRC32 hash (test run) : 4EF6FDCA
CRC32 hash : 4EF6FDCA
CRC32 hash (skip zero) : D001AC26
AccurateRip v1 signature : 13C0087B
AccurateRip v2 signature : CD70A63A
->Accurately ripped (v2, confidence 2/31)
Statistics
Read error : 0
Jitter error (maybe fixed) : 0
Retry sector count : 0
Damaged sector count : 0
Track 10
Filename : /Volumes/OWC Mercury Elite Pro - #2/Needs something/ Music/Tito Puente - Quatro - The Definitive Collection (2012) [FLAC] {SonyLatin 8872 546988 2}/CD3/10 - Estoy siempre junto a ti.flac
Pre-gap length : 00:02:25
Track gain : -6.72 dB
Peak : 0.883179
CRC32 hash (test run) : 1F30F95D
CRC32 hash : 1F30F95D
CRC32 hash (skip zero) : FB1AD217
AccurateRip v1 signature : 8AE6DF81
AccurateRip v2 signature : CB5B2697
->Accurately ripped (v2, confidence 2/31)
Statistics
Read error : 0
Jitter error (maybe fixed) : 0
Retry sector count : 0
Damaged sector count : 0
Track 11
Filename : /Volumes/OWC Mercury Elite Pro - #2/Needs something/ Music/Tito Puente - Quatro - The Definitive Collection (2012) [FLAC] {SonyLatin 8872 546988 2}/CD3/11 - Agua limpia todo.flac
Pre-gap length : 00:02:25
Track gain : -6.23 dB
Peak : 0.880524
CRC32 hash (test run) : CC225ABE
CRC32 hash : CC225ABE
CRC32 hash (skip zero) : 2A1F0BA1
AccurateRip v1 signature : 933200EC
AccurateRip v2 signature : 0D666EA3
->Accurately ripped (v2, confidence 2/31)
Statistics
Read error : 0
Jitter error (maybe fixed) : 0
Retry sector count : 0
Damaged sector count : 0
Track 12
Filename : /Volumes/OWC Mercury Elite Pro - #2/Needs something/ Music/Tito Puente - Quatro - The Definitive Collection (2012) [FLAC] {SonyLatin 8872 546988 2}/CD3/12 - Saca tu mujer.flac
Pre-gap length : 00:02:25
Track gain : -6.78 dB
Peak : 0.859375
CRC32 hash (test run) : 5BD1B0F5
CRC32 hash : 5BD1B0F5
CRC32 hash (skip zero) : F379B9CA
AccurateRip v1 signature : 6C1766A0
AccurateRip v2 signature : 1C30EFF5
->Accurately ripped (v2, confidence 2/31)
Statistics
Read error : 0
Jitter error (maybe fixed) : 0
Retry sector count : 0
Damaged sector count : 0
No errors occurred
End of status report
-----BEGIN XLD SIGNATURE-----
CrUY4stKeRnBb.ik5WStev46SwMwaFVpCfDByVs_a3LoC1VcUSVFLho7wzjxdQpR1CF4oGblcM7MIu.2aih0fTWmkKK.rC4BL7nslWK
-----END XLD SIGNATURE-----
 
Содержание индексной карты (.CUE)
TITLE "Dance Mania"
PERFORMER "Tito Puente"
REM GENRE Latin Jazz
REM DATE 1958
REM DISCID A8090F0C
FILE "01 - El Cayuco.wav" WAVE
TRACK 01 AUDIO
TITLE "El Cayuco"
INDEX 01 00:00:00
TRACK 02 AUDIO
TITLE "Complicacion"
INDEX 00 02:35:52
FILE "02 - Complicacion.wav" WAVE
INDEX 01 00:00:00
TRACK 03 AUDIO
TITLE "3-D Mambo"
INDEX 00 03:20:63
FILE "03 - 3-D Mambo.wav" WAVE
INDEX 01 00:00:00
TRACK 04 AUDIO
TITLE "Llego Mijan"
INDEX 00 02:23:35
FILE "04 - Llego Mijan.wav" WAVE
INDEX 01 00:00:00
TRACK 05 AUDIO
TITLE "Cuando Te Vea (Guaguanco)"
INDEX 00 03:11:57
FILE "05 - Cuando Te Vea (Guaguanco).wav" WAVE
INDEX 01 00:00:00
TRACK 06 AUDIO
TITLE "Hong Kong Mambo"
INDEX 00 04:13:20
FILE "06 - Hong Kong Mambo.wav" WAVE
INDEX 01 00:00:00
TRACK 07 AUDIO
TITLE "Mambo Gozon"
INDEX 00 03:45:70
FILE "07 - Mambo Gozon.wav" WAVE
INDEX 01 00:00:00
TRACK 08 AUDIO
TITLE "Mi Chiquita Quiere Bembe"
INDEX 00 02:45:40
FILE "08 - Mi Chiquita Quiere Bembe.wav" WAVE
INDEX 01 00:00:00
TRACK 09 AUDIO
TITLE "Varsity Drag"
INDEX 00 03:55:25
FILE "09 - Varsity Drag.wav" WAVE
INDEX 01 00:00:00
TRACK 10 AUDIO
TITLE "Estoy Siempre Junto A Ti"
INDEX 00 02:50:40
FILE "10 - Estoy Siempre Junto A Ti.wav" WAVE
INDEX 01 00:00:00
TRACK 11 AUDIO
TITLE "Agua Limpia Todo"
INDEX 00 03:11:65
FILE "11 - Agua Limpia Todo.wav" WAVE
INDEX 01 00:00:00
TRACK 12 AUDIO
TITLE "Saca Tu Mujer"
INDEX 00 02:54:58
FILE "12 - Saca Tu Mujer.wav" WAVE
INDEX 01 00:00:00
 
Revolving Bandstand (1960)
Продолжительность: 28:17
Треклист:
01. Bahia (Na Baixa Do Sapateiro) (2:06)
02. I Concentrate On You (3:16)
03. Autumn Leaves (3:11)
04. Harlem Nocturne (2:44)
05. Kiss Of Fire (3:11)
06. The Continental (2:39)
07. Blue Moon (2:36)
08. Temptation (3:32)
09. So In Love (2:41)
10. Baby Won't You Please Come Home (2:21)
 
 
Лог создания рипа
X Lossless Decoder version 20130407 (143.0)
XLD extraction logfile from 2014-09-03 12:30:11 -0700
Tito Puente f/Buddy Morrow Orchestra / Quatro - The Definitive Collection
Used drive : HL-DT-ST DVDRW GA32N (revision KE06)
Media type : Pressed CD
Ripper mode : XLD Secure Ripper
Disable audio cache : OK for the drive with a cache less than 1375KiB
Make use of C2 pointers : NO
Read offset correction : 103
Max retry count : 100
Gap status : Analyzed, Appended (except HTOA)
TOC of the extracted CD
Track | Start | Length | Start sector | End sector
---------------------------------------------------------
1 | 00:00:00 | 02:05:68 | 0 | 9442
2 | 02:05:68 | 03:15:71 | 9443 | 24138
3 | 05:21:64 | 03:11:19 | 24139 | 38482
4 | 08:33:08 | 02:43:72 | 38483 | 50779
5 | 11:17:05 | 03:10:64 | 50780 | 65093
6 | 14:27:69 | 02:39:07 | 65094 | 77025
7 | 17:07:01 | 02:36:11 | 77026 | 88736
8 | 19:43:12 | 03:32:15 | 88737 | 104651
9 | 23:15:27 | 02:40:64 | 104652 | 116715
10 | 25:56:16 | 02:21:05 | 116716 | 127295
AccurateRip Summary (DiscID: 000ab79e-00562ebe-8e06a10a)
Track 01 : OK (v2, confidence 2/2)
Track 02 : OK (v2, confidence 2/2)
Track 03 : OK (v2, confidence 2/2)
Track 04 : OK (v2, confidence 2/2)
Track 05 : OK (v2, confidence 2/2)
Track 06 : OK (v2, confidence 2/2)
Track 07 : OK (v2, confidence 2/2)
Track 08 : OK (v2, confidence 2/2)
Track 09 : OK (v2, confidence 2/2)
Track 10 : OK (v2, confidence 2/2)
->All tracks accurately ripped.
All Tracks
Album gain : -7.93 dB
Peak : 0.986176
Statistics
Read error : 0
Jitter error (maybe fixed) : 0
Retry sector count : 0
Damaged sector count : 0
Track 01
Filename : /Volumes/OWC Mercury Elite Pro - #2/Needs something/ Music/Tito Puente - Quatro - The Definitive Collection (2012) [FLAC] {SonyLatin 8872 546988 2}/CD4/01 - Bahia (Na Baixa do Sapateiro).flac
Pre-gap length : 00:02:00
Track gain : -7.80 dB
Peak : 0.980804
CRC32 hash (test run) : D6026B60
CRC32 hash : D6026B60
CRC32 hash (skip zero) : 51F01052
AccurateRip v1 signature : 1BFA061E
AccurateRip v2 signature : 37677586
->Accurately ripped (v2, confidence 2/2)
Statistics
Read error : 0
Jitter error (maybe fixed) : 0
Retry sector count : 0
Damaged sector count : 0
Track 02
Filename : /Volumes/OWC Mercury Elite Pro - #2/Needs something/ Music/Tito Puente - Quatro - The Definitive Collection (2012) [FLAC] {SonyLatin 8872 546988 2}/CD4/02 - I Concentrate On You.flac
Pre-gap length : 00:02:24
Track gain : -7.75 dB
Peak : 0.978790
CRC32 hash (test run) : 213AD00E
CRC32 hash : 213AD00E
CRC32 hash (skip zero) : B4E75313
AccurateRip v1 signature : 8A108186
AccurateRip v2 signature : FBD8B0D6
->Accurately ripped (v2, confidence 2/2)
Statistics
Read error : 0
Jitter error (maybe fixed) : 0
Retry sector count : 0
Damaged sector count : 0
Track 03
Filename : /Volumes/OWC Mercury Elite Pro - #2/Needs something/ Music/Tito Puente - Quatro - The Definitive Collection (2012) [FLAC] {SonyLatin 8872 546988 2}/CD4/03 - Autumn Leaves.flac
Pre-gap length : 00:02:28
Track gain : -7.91 dB
Peak : 0.986176
CRC32 hash (test run) : 46AA17C1
CRC32 hash : 46AA17C1
CRC32 hash (skip zero) : 24E97FEF
AccurateRip v1 signature : 9983950F
AccurateRip v2 signature : B38B92FB
->Accurately ripped (v2, confidence 2/2)
Statistics
Read error : 0
Jitter error (maybe fixed) : 0
Retry sector count : 0
Damaged sector count : 0
Track 04
Filename : /Volumes/OWC Mercury Elite Pro - #2/Needs something/ Music/Tito Puente - Quatro - The Definitive Collection (2012) [FLAC] {SonyLatin 8872 546988 2}/CD4/04 - Harlem Nocturne.flac
Pre-gap length : 00:01:42
Track gain : -8.28 dB
Peak : 0.982086
CRC32 hash (test run) : 6D7493E4
CRC32 hash : 6D7493E4
CRC32 hash (skip zero) : 94052FB2
AccurateRip v1 signature : 7285022E
AccurateRip v2 signature : B381A51B
->Accurately ripped (v2, confidence 2/2)
Statistics
Read error : 0
Jitter error (maybe fixed) : 0
Retry sector count : 0
Damaged sector count : 0
Track 05
Filename : /Volumes/OWC Mercury Elite Pro - #2/Needs something/ Music/Tito Puente - Quatro - The Definitive Collection (2012) [FLAC] {SonyLatin 8872 546988 2}/CD4/05 - Kiss Of Fire.flac
Pre-gap length : 00:02:13
Track gain : -8.03 dB
Peak : 0.978943
CRC32 hash (test run) : 84EC334A
CRC32 hash : 84EC334A
CRC32 hash (skip zero) : 9B64E9F8
AccurateRip v1 signature : A241622E
AccurateRip v2 signature : 01CA1EBE
->Accurately ripped (v2, confidence 2/2)
Statistics
Read error : 0
Jitter error (maybe fixed) : 0
Retry sector count : 0
Damaged sector count : 0
Track 06
Filename : /Volumes/OWC Mercury Elite Pro - #2/Needs something/ Music/Tito Puente - Quatro - The Definitive Collection (2012) [FLAC] {SonyLatin 8872 546988 2}/CD4/06 - The Confidential.flac
Pre-gap length : 00:02:22
Track gain : -8.01 dB
Peak : 0.979004
CRC32 hash (test run) : 7163B893
CRC32 hash : 7163B893
CRC32 hash (skip zero) : E6DCC3C7
AccurateRip v1 signature : EA8DD38E
AccurateRip v2 signature : 833118DC
->Accurately ripped (v2, confidence 2/2)
Statistics
Read error : 0
Jitter error (maybe fixed) : 0
Retry sector count : 0
Damaged sector count : 0
Track 07
Filename : /Volumes/OWC Mercury Elite Pro - #2/Needs something/ Music/Tito Puente - Quatro - The Definitive Collection (2012) [FLAC] {SonyLatin 8872 546988 2}/CD4/07 - Blue Moon.flac
Pre-gap length : 00:02:30
Track gain : -7.98 dB
Peak : 0.980835
CRC32 hash (test run) : 1EBE31D3
CRC32 hash : 1EBE31D3
CRC32 hash (skip zero) : 2F637C7F
AccurateRip v1 signature : 89E4C8B2
AccurateRip v2 signature : 65DEF21A
->Accurately ripped (v2, confidence 2/2)
Statistics
Read error : 0
Jitter error (maybe fixed) : 0
Retry sector count : 0
Damaged sector count : 0
Track 08
Filename : /Volumes/OWC Mercury Elite Pro - #2/Needs something/ Music/Tito Puente - Quatro - The Definitive Collection (2012) [FLAC] {SonyLatin 8872 546988 2}/CD4/08 - Temptation.flac
Pre-gap length : 00:02:04
Track gain : -7.78 dB
Peak : 0.972046
CRC32 hash (test run) : B1AD9339
CRC32 hash : B1AD9339
CRC32 hash (skip zero) : 45A7B9E9
AccurateRip v1 signature : 19FC90B9
AccurateRip v2 signature : 8796632F
->Accurately ripped (v2, confidence 2/2)
Statistics
Read error : 0
Jitter error (maybe fixed) : 0
Retry sector count : 0
Damaged sector count : 0
Track 09
Filename : /Volumes/OWC Mercury Elite Pro - #2/Needs something/ Music/Tito Puente - Quatro - The Definitive Collection (2012) [FLAC] {SonyLatin 8872 546988 2}/CD4/09 - So In Love.flac
Pre-gap length : 00:02:31
Track gain : -7.56 dB
Peak : 0.975616
CRC32 hash (test run) : 74132C40
CRC32 hash : 74132C40
CRC32 hash (skip zero) : 04F9C55E
AccurateRip v1 signature : 35796C9A
AccurateRip v2 signature : DF11693B
->Accurately ripped (v2, confidence 2/2)
Statistics
Read error : 0
Jitter error (maybe fixed) : 0
Retry sector count : 0
Damaged sector count : 0
Track 10
Filename : /Volumes/OWC Mercury Elite Pro - #2/Needs something/ Music/Tito Puente - Quatro - The Definitive Collection (2012) [FLAC] {SonyLatin 8872 546988 2}/CD4/10 - Baby Won't You Please Come Home.flac
Pre-gap length : 00:01:74
Track gain : -8.02 dB
Peak : 0.972137
CRC32 hash (test run) : FF0D50AF
CRC32 hash : FF0D50AF
CRC32 hash (skip zero) : F3F86136
AccurateRip v1 signature : A32DE7E5
AccurateRip v2 signature : 4D67E87C
->Accurately ripped (v2, confidence 2/2)
Statistics
Read error : 0
Jitter error (maybe fixed) : 0
Retry sector count : 0
Damaged sector count : 0
No errors occurred
End of status report
-----BEGIN XLD SIGNATURE-----
WLS9YCjzoqnSaq8A4nxPgG.QRa.UCyJylSMS_oc09MPFdXYUETH.sCcZfsJNNEAKTgBRJRKtvTNO.nQDQOHg4sdE_Q.dL1kcmk_5w4y
-----END XLD SIGNATURE-----
 
Содержание индексной карты (.CUE)
TITLE "Revolving Bandstand"
PERFORMER "Tito Puente"
CATALOG 0887254980629
REM GENRE Latin Jazz
REM DATE 1960
REM DISCID 8E06A10A
FILE "01 - Bahia (Na Baixa Do Sapateiro).wav" WAVE
TRACK 01 AUDIO
TITLE "Bahia (Na Baixa Do Sapateiro)"
ISRC USBL10001500
INDEX 01 00:00:00
TRACK 02 AUDIO
TITLE "I Concentrate On You"
ISRC USRC16007264
INDEX 00 02:03:44
FILE "02 - I Concentrate On You.wav" WAVE
INDEX 01 00:00:00
TRACK 03 AUDIO
TITLE "Autumn Leaves"
ISRC USBL10001503
INDEX 00 03:13:43
FILE "03 - Autumn Leaves.wav" WAVE
INDEX 01 00:00:00
TRACK 04 AUDIO
TITLE "Harlem Nocturne"
ISRC USRC16007265
INDEX 00 03:09:52
FILE "04 - Harlem Nocturne.wav" WAVE
INDEX 01 00:00:00
TRACK 05 AUDIO
TITLE "Kiss Of Fire"
ISRC USBL10001504
INDEX 00 02:41:59
FILE "05 - Kiss Of Fire.wav" WAVE
INDEX 01 00:00:00
TRACK 06 AUDIO
TITLE "The Continental"
ISRC USBL10001515
INDEX 00 03:08:42
FILE "06 - The Continental.wav" WAVE
INDEX 01 00:00:00
TRACK 07 AUDIO
TITLE "Blue Moon"
ISRC USBL10100098
INDEX 00 02:36:52
FILE "07 - Blue Moon.wav" WAVE
INDEX 01 00:00:00
TRACK 08 AUDIO
TITLE "Temptation"
ISRC USBL10001502
INDEX 00 02:34:07
FILE "08 - Temptation.wav" WAVE
INDEX 01 00:00:00
TRACK 09 AUDIO
TITLE "So In Love"
ISRC USBL10400276
INDEX 00 03:29:59
FILE "09 - So In Love.wav" WAVE
INDEX 01 00:00:00
TRACK 10 AUDIO
TITLE "Baby Won't You Please Come Home"
ISRC USRC16007266
INDEX 00 02:38:65
FILE "10 - Baby Won't You Please Come Home.wav" WAVE
INDEX 01 00:00:00
 
Quatro: Bonus Edition (2012)
Продолжительность: 27:41
Треклист:
01. Ran Kan Kan (3:01)
02. Timbal Y Bongo (2:59)
03. Pa' Los Rumberos (Out-Take 1) (0:24)
04. Pa' Los Rumberos (Out-Take 2) (0:30)
05. Pa' Los Rumberos (Out-Take 3) (0:18)
06. Pa' Los Rumberos (Out-Take 4) (1:11)
07. Pa' Los Rumberos (Out-Take 5) (1:18)
08. Pa' Los Rumberos (Out-Take 6) (3:39)
09. Pa' Los Rumberos (Out-Take 7) (3:09)
10. The Continental (Alt Take) (2:34)
11. Blue Moon (Alt Take) (2:39)
12. Moonlight In Vermont (3:04)
13. La Virgen De La Macarena (2:55)
 
 
Лог создания рипа
X Lossless Decoder version 20130407 (143.0)
XLD extraction logfile from 2014-12-28 16:43:51 -0800
Tito Puente / Quatro (Bonus Edition)
Used drive : HL-DT-ST DVDRW GA32N (revision KE06)
Media type : Pressed CD
Ripper mode : XLD Secure Ripper
Disable audio cache : OK for the drive with a cache less than 1375KiB
Make use of C2 pointers : NO
Read offset correction : 103
Max retry count : 100
Gap status : Analyzed, Appended (except HTOA)
TOC of the extracted CD
Track | Start | Length | Start sector | End sector
---------------------------------------------------------
1 | 00:00:00 | 03:01:13 | 0 | 13587
2 | 03:01:13 | 02:59:07 | 13588 | 27019
3 | 06:00:20 | 00:24:31 | 27020 | 28850
4 | 06:24:51 | 00:30:09 | 28851 | 31109
5 | 06:54:60 | 00:18:24 | 31110 | 32483
6 | 07:13:09 | 01:11:08 | 32484 | 37816
7 | 08:24:17 | 01:17:42 | 37817 | 43633
8 | 09:41:59 | 03:39:05 | 43634 | 60063
9 | 13:20:64 | 03:09:18 | 60064 | 74256
10 | 16:30:07 | 02:34:27 | 74257 | 85833
11 | 19:04:34 | 02:38:38 | 85834 | 97721
12 | 21:42:72 | 03:04:30 | 97722 | 111551
13 | 24:47:27 | 02:54:47 | 111552 | 124648
AccurateRip Summary (DiscID: 000bba46-0076c2dc-a4067d0d)
Track 01 : OK (v2, confidence 2/2)
Track 02 : OK (v2, confidence 2/2)
Track 03 : OK (v2, confidence 2/2)
Track 04 : OK (v2, confidence 2/2)
Track 05 : OK (v2, confidence 2/2)
Track 06 : OK (v2, confidence 2/2)
Track 07 : OK (v2, confidence 2/2)
Track 08 : OK (v2, confidence 2/2)
Track 09 : OK (v2, confidence 2/2)
Track 10 : OK (v2, confidence 2/2)
Track 11 : OK (v2, confidence 2/2)
Track 12 : OK (v2, confidence 2/2)
Track 13 : OK (v2, confidence 2/2)
->All tracks accurately ripped.
All Tracks
Album gain : -8.13 dB
Peak : 0.994965
Statistics
Read error : 0
Jitter error (maybe fixed) : 0
Retry sector count : 0
Damaged sector count : 0
Track 01
Filename : /Volumes/OWC Mercury Elite Pro - #2/Needs something/ Music/Tito Puente - Quatro - The Definitive Collection (2012) [FLAC] {SonyLatin 8872 546988 2}/CD5/01 - Ran Kan Kan.flac
Pre-gap length : 00:02:00
Track gain : -9.57 dB
Peak : 0.977539
CRC32 hash (test run) : C4066FD5
CRC32 hash : C4066FD5
CRC32 hash (skip zero) : 27F9B3B8
AccurateRip v1 signature : 47E9E91C
AccurateRip v2 signature : 142FCB8F
->Accurately ripped (v2, confidence 2/2)
Statistics
Read error : 0
Jitter error (maybe fixed) : 0
Retry sector count : 0
Damaged sector count : 0
Track 02
Filename : /Volumes/OWC Mercury Elite Pro - #2/Needs something/ Music/Tito Puente - Quatro - The Definitive Collection (2012) [FLAC] {SonyLatin 8872 546988 2}/CD5/02 - Timbal y Bongo.flac
Pre-gap length : 00:02:00
Track gain : -8.43 dB
Peak : 0.905121
CRC32 hash (test run) : 74904AE4
CRC32 hash : 74904AE4
CRC32 hash (skip zero) : 7C0A55D3
AccurateRip v1 signature : 5DB5842A
AccurateRip v2 signature : 2B46D56F
->Accurately ripped (v2, confidence 2/2)
Statistics
Read error : 0
Jitter error (maybe fixed) : 0
Retry sector count : 0
Damaged sector count : 0
Track 03
Filename : /Volumes/OWC Mercury Elite Pro - #2/Needs something/ Music/Tito Puente - Quatro - The Definitive Collection (2012) [FLAC] {SonyLatin 8872 546988 2}/CD5/03 - Pa' Los Rumberos (Out-Take 1).flac
Pre-gap length : 00:01:65
Track gai
19:22
346
Нет комментариев. Ваш будет первым!