Поиск

(Latin Jazz, World Fusion) [CD] Toninho Horta - Diamond Land - 1988, FLAC (tracks+.cue), lossless

(Latin Jazz, World Fusion) [CD] Toninho Horta - Diamond Land - 1988, FLAC (tracks+.cue), lossless
Toninho Horta - Diamond Land
Жанр: Latin Jazz, World Fusion
Носитель: CD
Год издания: 1988
Издатель (лейбл): PolyGram/Verve Forecast
Номер по каталогу: 835 183-2
Аудиокодек: FLAC (*.flac)
Тип рипа: tracks .cue
Битрейт аудио: lossless
Продолжительность: 44:12
Rip by Musicgate
Наличие сканов в содержимом раздачи: да
Треклист:
01. Mountain Flight (4:34)
02. Ballad for Zawinul (4:21)
03. Raul (5:33)
04. Sunflower (2:56)
05. Luisa (5:03)
06. From the Lonely Afternoons (2:46)
07. Pilar (5:55)
08. Waiting for Angela (5:14)
09. Diamond Land (3:42)
10. Broken Kiss (4:07)
 
 
Лог создания рипа
Exact Audio Copy V1.0 beta 3 from 29. August 2011
EAC extraction logfile from 15. July 2015, 13:49
Toninho Horta / Diamond Land
Used drive : HL-DT-STDVDRAM GSA-T50N Adapter: 1 ID: 0
Read mode : Secure
Utilize accurate stream : Yes
Defeat audio cache : Yes
Make use of C2 pointers : No
Read offset correction : 667
Overread into Lead-In and Lead-Out : No
Fill up missing offset samples with silence : Yes
Delete leading and trailing silent blocks : No
Null samples used in CRC calculations : Yes
Used interface : Native Win32 interface for Win NT & 2000
Gap handling : Appended to previous track
Used output format : User Defined Encoder
Selected bitrate : 1024 kBit/s
Quality : High
Add ID3 tag : No
Command line compressor : C:\Program Files\Exact Audio Copy\Flac\flac.exe
Additional command line options : -V -8 -T "Comment=ripped by Musicgate special for СПАМ -T "Genre=%genre%" -T "Artist=%artist%" -T "Title=%title%" -T "Album=%albumtitle%" -T "Date=%year%" -T "Tracknumber=%tracknr%" %source% -o Юst%
TOC of the extracted CD
Track | Start | Length | Start sector | End sector
---------------------------------------------------------
1 | 0:00.32 | 4:34.35 | 32 | 20616
2 | 4:34.67 | 4:20.73 | 20617 | 40189
3 | 8:55.65 | 5:33.07 | 40190 | 65171
4 | 14:28.72 | 2:55.65 | 65172 | 78361
5 | 17:24.62 | 5:02.55 | 78362 | 101066
6 | 22:27.42 | 2:46.25 | 101067 | 113541
7 | 25:13.67 | 5:54.65 | 113542 | 140156
8 | 31:08.57 | 5:14.33 | 140157 | 163739
9 | 36:23.15 | 3:42.12 | 163740 | 180401
10 | 40:05.27 | 4:06.68 | 180402 | 198919
Track 1
Filename C:\Musicgate for СПАМ Horta - Diamond Land - 1988 (PolyGram 835 183-2)\01 - Mountain Flight.wav
Pre-gap length 0:00:02.32
Peak level 79.2 %
Extraction speed 1.2 X
Track quality 100.0 %
Test CRC BF9A8A2B
Copy CRC BF9A8A2B
Accurately ripped (confidence 2) [6B7274A2] (AR v2)
Copy OK
Track 2
Filename C:\Musicgate for СПАМ Horta - Diamond Land - 1988 (PolyGram 835 183-2)\02 - Ballad for Zawinul.wav
Peak level 84.3 %
Extraction speed 1.4 X
Track quality 100.0 %
Test CRC 23DF5682
Copy CRC 23DF5682
Accurately ripped (confidence 2) [A17113AE] (AR v2)
Copy OK
Track 3
Filename C:\Musicgate for СПАМ Horta - Diamond Land - 1988 (PolyGram 835 183-2)\03 - Raul.wav
Pre-gap length 0:00:01.71
Peak level 76.4 %
Extraction speed 1.6 X
Track quality 100.0 %
Test CRC 234F4130
Copy CRC 234F4130
Accurately ripped (confidence 2) [618B7D73] (AR v2)
Copy OK
Track 4
Filename C:\Musicgate for СПАМ Horta - Diamond Land - 1988 (PolyGram 835 183-2)\04 - Sunflower.wav
Pre-gap length 0:00:02.08
Peak level 61.3 %
Extraction speed 1.4 X
Track quality 100.0 %
Test CRC 95422185
Copy CRC 95422185
Accurately ripped (confidence 2) [12EEAE06] (AR v2)
Copy OK
Track 5
Filename C:\Musicgate for СПАМ Horta - Diamond Land - 1988 (PolyGram 835 183-2)\05 - Luisa.wav
Pre-gap length 0:00:02.39
Peak level 97.7 %
Extraction speed 1.6 X
Track quality 100.0 %
Test CRC ED3D65A3
Copy CRC ED3D65A3
Accurately ripped (confidence 2) [BD5095EE] (AR v2)
Copy OK
Track 6
Filename C:\Musicgate for СПАМ Horta - Diamond Land - 1988 (PolyGram 835 183-2)\06 - From the Lonely Afternoons.wav
Peak level 98.7 %
Extraction speed 1.3 X
Track quality 99.9 %
Test CRC C7EC704A
Copy CRC C7EC704A
Accurately ripped (confidence 2) [D51FCE3C] (AR v2)
Copy OK
Track 7
Filename C:\Musicgate for СПАМ Horta - Diamond Land - 1988 (PolyGram 835 183-2)\07 - Pilar.wav
Peak level 96.8 %
Extraction speed 1.7 X
Track quality 99.9 %
Test CRC EFD20642
Copy CRC EFD20642
Accurately ripped (confidence 2) [7AFC99D4] (AR v2)
Copy OK
Track 8
Filename C:\Musicgate for СПАМ Horta - Diamond Land - 1988 (PolyGram 835 183-2)\08 - Waiting for Angela.wav
Peak level 73.6 %
Extraction speed 2.0 X
Track quality 100.0 %
Test CRC E5C2D543
Copy CRC E5C2D543
Accurately ripped (confidence 2) [7C1090BE] (AR v2)
Copy OK
Track 9
Filename C:\Musicgate for СПАМ Horta - Diamond Land - 1988 (PolyGram 835 183-2)\09 - Diamond Land.wav
Peak level 97.7 %
Extraction speed 2.0 X
Track quality 100.0 %
Test CRC 68DB534A
Copy CRC 68DB534A
Accurately ripped (confidence 2) [DC4F4C03] (AR v2)
Copy OK
Track 10
Filename C:\Musicgate for СПАМ Horta - Diamond Land - 1988 (PolyGram 835 183-2)\10 - Broken Kiss.wav
Peak level 79.9 %
Extraction speed 2.1 X
Track quality 100.0 %
Test CRC 40C6EB8E
Copy CRC 40C6EB8E
Accurately ripped (confidence 2) [0FEAA494] (AR v2)
Copy OK
All tracks accurately ripped
No errors occurred
End of status report
==== Log checksum 3CFDECF69EFB5425106A0A0B61F31FE3D1D438DB80419323E8079921CA266730 ====
 
Содержание индексной карты (.CUE)
REM GENRE Jazz
REM DATE 1988
REM DISCID 840A5C0A
REM COMMENT "ExactAudioCopy v1.0b3"
CATALOG 0042283518322
PERFORMER "Toninho Horta"
TITLE "Diamond Land"
FILE "01 - Mountain Flight.wav" WAVE
TRACK 01 AUDIO
TITLE "Mountain Flight"
PERFORMER "Toninho Horta"
ISRC USF068825010
PREGAP 00:00:32
INDEX 01 00:00:00
FILE "02 - Ballad for Zawinul.wav" WAVE
TRACK 02 AUDIO
TITLE "Ballad for Zawinul"
PERFORMER "Toninho Horta"
ISRC USF068825020
INDEX 01 00:00:00
TRACK 03 AUDIO
TITLE "Raul"
PERFORMER "Toninho Horta"
ISRC USF068825030
INDEX 00 04:19:02
FILE "03 - Raul.wav" WAVE
INDEX 01 00:00:00
TRACK 04 AUDIO
TITLE "Sunflower"
PERFORMER "Toninho Horta"
ISRC USF068825040
INDEX 00 05:30:74
FILE "04 - Sunflower.wav" WAVE
INDEX 01 00:00:00
TRACK 05 AUDIO
TITLE "Luisa"
PERFORMER "Toninho Horta"
ISRC USF068825050
INDEX 00 02:53:26
FILE "05 - Luisa.wav" WAVE
INDEX 01 00:00:00
FILE "06 - From the Lonely Afternoons.wav" WAVE
TRACK 06 AUDIO
TITLE "From the Lonely Afternoons"
PERFORMER "Toninho Horta"
ISRC USF068825060
INDEX 01 00:00:00
FILE "07 - Pilar.wav" WAVE
TRACK 07 AUDIO
TITLE "Pilar"
PERFORMER "Toninho Horta"
ISRC USF068825070
INDEX 01 00:00:00
FILE "08 - Waiting for Angela.wav" WAVE
TRACK 08 AUDIO
TITLE "Waiting for Angela"
PERFORMER "Toninho Horta"
ISRC USF068825080
INDEX 01 00:00:00
FILE "09 - Diamond Land.wav" WAVE
TRACK 09 AUDIO
TITLE "Diamond Land"
PERFORMER "Toninho Horta"
ISRC USF068825090
INDEX 01 00:00:00
FILE "10 - Broken Kiss.wav" WAVE
TRACK 10 AUDIO
TITLE "Broken Kiss"
PERFORMER "Toninho Horta"
ISRC USF068825100
INDEX 01 00:00:00
19:23
258
Нет комментариев. Ваш будет первым!