Поиск

(Afro-Cuban Jazz, avant-garde jazz) Deep Rumba (Kip Hanrahan project) - дискография 1998-2000 (2CD), APE (image+.cue), lossless

(Afro-Cuban Jazz, avant-garde jazz) Deep Rumba (Kip Hanrahan project) - дискография 1998-2000 (2CD), APE (image+.cue), lossless
Треклист:
Deep Rumba (Kip Hanrahan project) - дискография 1998-2000 (2CD)
Жанр: Afro-Cuban Jazz, avant-garde jazz
Носитель: CD
Год издания: 1998-2000
Страна исполнителя (группы): US
 
Deep Rumba - This Night Becomes A Rumba - 1998
Страна-производитель диска: Canada
Год первого выпуска: 1988
Год настоящего издания: 1988
Издатель (лейбл): American Clavé/ Justin Time
Номер по каталогу: JTAC 1024
Format: CD, Album
Аудиокодек: APE (*.ape)
Тип рипа: image+.cue
Битрейт аудио: lossless
Продолжительность: 01:03:19
Источник (релизер): ed2k
Наличие сканов в содержимом раздачи: да
Треклист:
01. Vallejo (Cesar Vallejo/Kip Hanrahan/Ruben Blades) (00:23)
02. Cuentale (Puntilla Orlando Rios) (04:21)
03. Columbia Dos Santos (Puntilla Orlando Rios) (06:18)
04. Una Noche De Verano Comenca (Horacio Hernandez/Kip Hanrahan/Ciamara Laugart) (08:46)
05. Yambhoracio (Horacio Hernandez) 2:14)
06. Sunshine Of Your Love (Jack Bruce/Pete Brown/Eric Clapton) (02:49)
07. The Bronx With Palm Trees (Andy Gonzalez) (04:45)
08. Negro And Andy Run This Very Night Into The Rumba (Horacio Hernandez/Andy Gonzalez) (03:56)
09. Calma Morena (Kip Hanrahan/Ciamara Laugart) (00:54)
10. Yambu Chevoret (Puntilla Orlando Rios) (07:08)
11. Si! No! (Luis Abreu/Ciamara Laugart) (09:34)
12. I Wish You Love (Charles Trenet/Leon Chauliac) (09:51)
13. Vallejo (Reprise) (Cesar Vallejo/Kip Hanrahan/Ruben Blades) (00:43)
14. Distancia (Hernando Alfonso) (01:32)
 
Лог создания рипа
EAC extraction logfile from 11. August 2010, 17:01 for CD
Deep Rumba / This Night Becomes A Rumba
Used drive : PLEXTOR DVDR PX-750A Adapter: 0 ID: 1
Read mode : Secure with NO C2, accurate stream, disable cache
Read offset correction : 102
Overread into Lead-In and Lead-Out : No
Used output format : Internal WAV Routines
44.100 Hz; 16 Bit; Stereo
Other options :
Fill up missing offset samples with silence : Yes
Delete leading and trailing silent blocks : No
Installed external ASPI interface
Range status and errors
Selected range
Filename E:\Donkey Files\Deep Rumba - This Night Becomes a Rumba (1998, American Clave) [eac-ape-scans] byDrBull\CDImage.wav
Peak level 100.0 %
Range quality 99.9 %
CRC BDC5A3A2
Copy OK
No errors occured
End of status report
 
Содержание индексной карты (.CUE)
CATALOG 0000000000000
PERFORMER "Deep Rumba"
TITLE "This Night Becomes A Rumba"
FILE "CDImage.wav" WAVE
TRACK 01 AUDIO
TITLE "Vallejo"
PERFORMER "Deep Rumba"
INDEX 01 00:00:00
TRACK 02 AUDIO
TITLE "Cuentale"
PERFORMER "Deep Rumba"
INDEX 00 00:22:17
INDEX 01 00:23:07
TRACK 03 AUDIO
TITLE "Columbia Dos Santos"
PERFORMER "Deep Rumba"
INDEX 01 04:44:50
TRACK 04 AUDIO
TITLE "Una Noche De Verano Comenca"
PERFORMER "Deep Rumba"
INDEX 01 11:02:72
TRACK 05 AUDIO
TITLE "Yambhoracio"
PERFORMER "Deep Rumba"
INDEX 00 19:48:20
INDEX 01 19:49:07
TRACK 06 AUDIO
TITLE "Sunshine Of Your Love"
PERFORMER "Deep Rumba"
INDEX 00 22:02:02
INDEX 01 22:03:07
TRACK 07 AUDIO
TITLE "The Bronx With Palm Trees"
PERFORMER "Deep Rumba"
INDEX 01 24:52:60
TRACK 08 AUDIO
TITLE "Negro And Andy Run This Very Night Into The Rumba"
PERFORMER "Deep Rumba"
INDEX 01 29:38:00
TRACK 09 AUDIO
TITLE "Calma Morena"
PERFORMER "Deep Rumba"
INDEX 01 33:34:42
TRACK 10 AUDIO
TITLE "Yambu Chevoret"
PERFORMER "Deep Rumba"
INDEX 00 34:25:35
INDEX 01 34:28:52
TRACK 11 AUDIO
TITLE "Si! No!"
PERFORMER "Deep Rumba"
INDEX 00 41:37:20
INDEX 01 41:37:45
TRACK 12 AUDIO
TITLE "I Wish You Love"
PERFORMER "Deep Rumba"
INDEX 00 51:08:20
INDEX 01 51:11:57
TRACK 13 AUDIO
TITLE "Vallejo (Reprise)"
PERFORMER "Deep Rumba"
INDEX 00 60:57:27
INDEX 01 61:02:60
TRACK 14 AUDIO
TITLE "Distancia"
PERFORMER "Deep Rumba"
INDEX 00 61:29:52
INDEX 01 61:46:17
 
Deep Rumba - A Calm In The Fire Of Dances - 2000
Страна-производитель диска: Canada
Год первого выпуска: 2000
Год настоящего издания: 2000
Издатель (лейбл): American Clavé
Номер по каталогу: JTAC 1030
Format: CD, Album
Аудиокодек: APE (*.ape)
Тип рипа: image+.cue
Битрейт аудио: lossless
Продолжительность: 01:08:51
Источник (релизер): ed2k
Наличие сканов в содержимом раздачи: да
Треклист:
01. Cubana (02:18)
02. Medley: Robby And Negro Opening Time - Pensamiento (04:18)
03. Bom Bom Bom Bom (03:08)
04. Prelude To Un Golpecito Na' Ma (02:58)
05. Kip Quest (01:58)
06. Quimbara 2000 (07:52)
07. Carlos And Andy Discuss The Science Of Voodoo And The Voodoo Of Science (04:26)
08. Besame Mucho (01:37)
09. Tradicion (02:18)
10. Sugar And Cotton (Black Hands In White Labor) (04:37)
11. Cantar Maravilioso (04:58)
12. Giovannito (02:05)
13. Arabian Nights (05:29)
14. El Solo Nino (04:27)
15. Yamba De Las Cocas (08:25)
16. Work And Play (Real Life Dramas) (05:56)
 
Лог создания рипа
EAC extraction logfile from 27. September 2010, 15:53 for CD
A Calm in the Fire of Dances / Deep Rumba
Used drive : PLEXTOR DVDR PX-750A Adapter: 0 ID: 1
Read mode : Secure with NO C2, accurate stream, disable cache
Read offset correction : 102
Overread into Lead-In and Lead-Out : No
Used output format : Internal WAV Routines
44.100 Hz; 16 Bit; Stereo
Other options :
Fill up missing offset samples with silence : Yes
Delete leading and trailing silent blocks : No
Installed external ASPI interface
Range status and errors
Selected range
Filename E:\Donkey Files\Deep Rumba - A Calm in the Fire of Dances (2000, American Clave) [eac-ape-scans] byDrBull\CDImage.wav
Peak level 100.0 %
Range quality 99.9 %
CRC 8C1BE893
Copy OK
No errors occured
End of status report
 
Содержание индексной карты (.CUE)
PERFORMER "A Calm in the Fire of Dances"
TITLE "Deep Rumba"
FILE "CDImage.wav" WAVE
TRACK 01 AUDIO
TITLE "Cubana"
PERFORMER "A Calm in the Fire of Dances"
INDEX 01 00:00:00
TRACK 02 AUDIO
TITLE "Medley: Robby and Negro Opening Time / Pensamiento"
PERFORMER "A Calm in the Fire of Dances"
INDEX 00 02:18:15
INDEX 01 02:21:72
TRACK 03 AUDIO
TITLE "bom bom bom bom"
PERFORMER "A Calm in the Fire of Dances"
INDEX 01 06:40:37
TRACK 04 AUDIO
TITLE "Prelude to Un Golpecito Na' Ma"
PERFORMER "A Calm in the Fire of Dances"
INDEX 01 09:48:72
TRACK 05 AUDIO
TITLE "Kip Quest"
PERFORMER "A Calm in the Fire of Dances"
INDEX 01 12:46:72
TRACK 06 AUDIO
TITLE "Quimbara 2000"
PERFORMER "A Calm in the Fire of Dances"
INDEX 01 14:45:50
TRACK 07 AUDIO
TITLE "Charles and Andy discuss the Science of Voodoo and the Voodoo of Science"
PERFORMER "A Calm in the Fire of Dances"
INDEX 00 22:37:52
INDEX 01 22:37:60
TRACK 08 AUDIO
TITLE "Besame Mucho"
PERFORMER "A Calm in the Fire of Dances"
INDEX 00 27:04:20
INDEX 01 27:05:42
TRACK 09 AUDIO
TITLE "Tradicion"
PERFORMER "A Calm in the Fire of Dances"
INDEX 00 28:43:15
INDEX 01 28:45:50
TRACK 10 AUDIO
TITLE "Sugar and Cotton (Black Hands in White Labor)"
PERFORMER "A Calm in the Fire of Dances"
INDEX 01 32:41:70
TRACK 11 AUDIO
TITLE "Cantar Maravilloso"
PERFORMER "A Calm in the Fire of Dances"
INDEX 01 37:19:10
TRACK 12 AUDIO
TITLE "Giovannito"
PERFORMER "A Calm in the Fire of Dances"
INDEX 01 42:17:55
TRACK 13 AUDIO
TITLE "Arabian Nights"
PERFORMER "A Calm in the Fire of Dances"
INDEX 01 44:23:32
TRACK 14 AUDIO
TITLE "Solo Nino"
PERFORMER "A Calm in the Fire of Dances"
INDEX 01 49:52:72
TRACK 15 AUDIO
TITLE "Yambu de las Cocas"
PERFORMER "A Calm in the Fire of Dances"
INDEX 01 54:20:47
TRACK 16 AUDIO
TITLE "Work and Play (Real Life Dramas)"
PERFORMER "A Calm in the Fire of Dances"
INDEX 00 62:45:47
INDEX 01 62:56:55
Доп. информация: Проект Deep Rumba – детище известного Кипа Ханрахана (Kip Hanrahan), полуеврея-полуирландца, уроженца Бронкса, продюсера и иногда перкуссиониста по совместительству. А здесь главными «румбоконсультантами» выступили Орландо «Пунтилья» Риос, басист Энди Гонсалес и барабанщик Орасио «Эль Негро» Эрнандес. Выпустили эту пару отличных альбомов под маркой лэйбла Ханрахана - American Clavé.
 
Состав

Co-producer – Andy Gonzalez, Horacio "El Negro" Hernandez, Milton Cardona, Puntilla Olando Rios, Roby Ameen
Producer – Kip Hanrahan
Bass, Coro – Andy Gonzalez
Cajón – Roman Diaz
Congas – Paoli Mejias, Richie Flores
Congas, Percussion [Sticks], Percussion [Sculptures] – Giovanni Hidalgo
Coro, Claves – Abraham Rodriguez
Drums, Congas, Percussion [Sculptures] – Robby Ameen
Drums, Keyboards, Percussion [Sticks], Percussion [Sculptures] – El Negro Horacio Hernandez*
Electric Bass – Charlie Flores
Lead Vocals – Haila Monpie*, Pedro Martinez
Lead Vocals, Co-producer – Orlando Rios
Lead Vocals, Coro – Xiomara Lougart
Coro – Kip Hanrahan
Recorded By – Dick Kondas, Jon Fausty
Tenor Saxophone – Charles Neville
Timbales – Amadito Valdez
Violin – Alfredo Triff
Voice – Velibor Pedevski
21:40
234
Нет комментариев. Ваш будет первым!