Поиск

(Jazz, Funk / Soul, Afrobeat) [CD] Karl Hector & The Malcouns - Can't Stand the Pressure - 2015, FLAC (tracks+.cue), lossless

(Jazz, Funk / Soul, Afrobeat) [CD] Karl Hector & The Malcouns - Can't Stand the Pressure - 2015, FLAC (tracks+.cue), lossless
Треклист:
Karl Hector & The Malcouns / Can't Stand the Pressure
Жанр: Jazz, Funk / Soul, Afrobeat
Носитель: CD
Страна-производитель диска (релиза): US
Год издания: 2015
Издатель (лейбл): Now-Again Records
Номер по каталогу: NA 5137
Страна исполнителя (группы): ?
Аудиокодек: FLAC (*.flac)
Тип рипа: tracks+.cue
Битрейт аудио: lossless
Продолжительность: 69m
Источник (релизер): wata
Наличие сканов в содержимом раздачи: нет
Треклист:
1 Roads Of Otumpa (Vocal)
Featuring – Vovotinha
2 Leealeh
3 Ngunga Yeti Fofa
4 Kingdom Of D'mt
5 Shangold
6 Circles
7 Chess Break
8 Ka Rica-Tar
9 Transition >X<
10 Orange
11 The Cave
12 Irtijal
13 Tamanrasset
14 J.B. RIP
15 Transition >G<
16 Can't Stand The Pressure
17 M'Hammath (Live)
18 Coomassi
19 Dege Dub
20 Transition >F<
21 Medium Rare Pt. 1
22 The Funk (Happysad)
23 Beyond Squares
24 Roads Of Otumpa (Instrumental)
 
Лог создания рипа
Exact Audio Copy V1.1 from 23. June 2015
EAC extraction logfile from 28. January 2016, 13:06
Karl Hector & The Malcouns / Can't Stand the Pressure
Used drive : TSSTcorpCDDVDW SN-208FB Adapter: 1 ID: 0
Read mode : Secure
Utilize accurate stream : Yes
Defeat audio cache : Yes
Make use of C2 pointers : No
Read offset correction : 6
Overread into Lead-In and Lead-Out : No
Fill up missing offset samples with silence : Yes
Delete leading and trailing silent blocks : No
Null samples used in CRC calculations : Yes
Used interface : Native Win32 interface for Win NT & 2000
Gap handling : Appended to previous track
Used output format : User Defined Encoder
Selected bitrate : 128 kBit/s
Quality : High
Add ID3 tag : No
Command line compressor : C:\Program Files (x86)\Exact Audio Copy\Flac\flac.exe
Additional command line options : -8 -V -T "ARTIST=%artist%" -T "TITLE=%title%" -T "ALBUM=%albumtitle%" -T "DATE=%year%" -T "TRACKNUMBER=%tracknr%" -T "GENRE=%genre%" -T "PERFORMER=%albuminterpret%" -T "COMPOSER=%composer%" %haslyrics%--tag-from-file=LYRICS="%lyricsfile%"%haslyrics% -T "ALBUMARTIST=%albumartist%" -T "DISCNUMBER=%cdnumber%" -T "TOTALDISCS=%totalcds%" -T "TOTALTRACKS=%numtracks%" -T "COMMENT=%comment%" %source% -o %dest%
TOC of the extracted CD
Track | Start | Length | Start sector | End sector
---------------------------------------------------------
1 | 0:00.00 | 2:56.00 | 0 | 13199
2 | 2:56.00 | 2:58.20 | 13200 | 26569
3 | 5:54.20 | 4:04.14 | 26570 | 44883
4 | 9:58.34 | 3:15.49 | 44884 | 59557
5 | 13:14.08 | 2:47.07 | 59558 | 72089
6 | 16:01.15 | 2:57.12 | 72090 | 85376
7 | 18:58.27 | 2:34.13 | 85377 | 96939
8 | 21:32.40 | 3:16.68 | 96940 | 111707
9 | 24:49.33 | 0:57.47 | 111708 | 116029
10 | 25:47.05 | 3:30.23 | 116030 | 131802
11 | 29:17.28 | 3:08.43 | 131803 | 145945
12 | 32:25.71 | 4:05.65 | 145946 | 164385
13 | 36:31.61 | 3:24.63 | 164386 | 179748
14 | 39:56.49 | 2:55.15 | 179749 | 192888
15 | 42:51.64 | 0:56.28 | 192889 | 197116
16 | 43:48.17 | 2:28.46 | 197117 | 208262
17 | 46:16.63 | 3:46.61 | 208263 | 225273
18 | 50:03.49 | 2:58.30 | 225274 | 238653
19 | 53:02.04 | 4:06.14 | 238654 | 257117
20 | 57:08.18 | 0:44.71 | 257118 | 260488
21 | 57:53.14 | 3:22.68 | 260489 | 275706
22 | 61:16.07 | 3:09.28 | 275707 | 289909
23 | 64:25.35 | 2:07.38 | 289910 | 299472
24 | 66:32.73 | 2:55.20 | 299473 | 312617
Track 1
Filename C:\Users\owner\Music\EAC Rips\Karl Hector & The Malcouns - Can't Stand the Pressure [2015] [FLAC]\01 - Roads Of Optumpa (vocal) feat. Vovotinha.wav
Pre-gap length 0:00:02.00
Peak level 96.7 %
Extraction speed 1.1 X
Track quality 100.0 %
Test CRC 0C9308E1
Copy CRC 0C9308E1
Track not present in AccurateRip database
Copy OK
Track 2
Filename C:\Users\owner\Music\EAC Rips\Karl Hector & The Malcouns - Can't Stand the Pressure [2015] [FLAC]\02 - Leealeh.wav
Peak level 98.7 %
Extraction speed 1.0 X
Track quality 99.9 %
Test CRC C1EB1B19
Copy CRC C1EB1B19
Track not present in AccurateRip database
Copy OK
Track 3
Filename C:\Users\owner\Music\EAC Rips\Karl Hector & The Malcouns - Can't Stand the Pressure [2015] [FLAC]\03 - Ngunga Yeti Fofa Feat. Nicolas Tounga.wav
Peak level 98.7 %
Extraction speed 1.3 X
Track quality 100.0 %
Test CRC 239BAC53
Copy CRC 239BAC53
Track not present in AccurateRip database
Copy OK
Track 4
Filename C:\Users\owner\Music\EAC Rips\Karl Hector & The Malcouns - Can't Stand the Pressure [2015] [FLAC]\04 - Kingdom Of D'MT.wav
Peak level 98.7 %
Extraction speed 1.3 X
Track quality 100.0 %
Test CRC 3A9D89A7
Copy CRC 3A9D89A7
Track not present in AccurateRip database
Copy OK
Track 5
Filename C:\Users\owner\Music\EAC Rips\Karl Hector & The Malcouns - Can't Stand the Pressure [2015] [FLAC]\05 - Shanagold.wav
Peak level 98.7 %
Extraction speed 1.4 X
Track quality 100.0 %
Test CRC FF2D9475
Copy CRC FF2D9475
Track not present in AccurateRip database
Copy OK
Track 6
Filename C:\Users\owner\Music\EAC Rips\Karl Hector & The Malcouns - Can't Stand the Pressure [2015] [FLAC]\06 - Circles.wav
Peak level 98.7 %
Extraction speed 1.5 X
Track quality 100.0 %
Test CRC 912FBEFC
Copy CRC 912FBEFC
Track not present in AccurateRip database
Copy OK
Track 7
Filename C:\Users\owner\Music\EAC Rips\Karl Hector & The Malcouns - Can't Stand the Pressure [2015] [FLAC]\07 - Chess Break.wav
Peak level 87.0 %
Extraction speed 1.5 X
Track quality 100.0 %
Test CRC 989AFC58
Copy CRC 989AFC58
Track not present in AccurateRip database
Copy OK
Track 8
Filename C:\Users\owner\Music\EAC Rips\Karl Hector & The Malcouns - Can't Stand the Pressure [2015] [FLAC]\08 - Ka Rica-Tar.wav
Peak level 98.7 %
Extraction speed 1.6 X
Track quality 100.0 %
Test CRC BAAD06DC
Copy CRC BAAD06DC
Track not present in AccurateRip database
Copy OK
Track 9
Filename C:\Users\owner\Music\EAC Rips\Karl Hector & The Malcouns - Can't Stand the Pressure [2015] [FLAC]\09 - Transition ]X[.wav
Peak level 98.7 %
Extraction speed 1.2 X
Track quality 100.0 %
Test CRC B91BDFE8
Copy CRC B91BDFE8
Track not present in AccurateRip database
Copy OK
Track 10
Filename C:\Users\owner\Music\EAC Rips\Karl Hector & The Malcouns - Can't Stand the Pressure [2015] [FLAC]\10 - Orange.wav
Peak level 98.7 %
Extraction speed 1.7 X
Track quality 100.0 %
Test CRC CB365D54
Copy CRC CB365D54
Track not present in AccurateRip database
Copy OK
Track 11
Filename C:\Users\owner\Music\EAC Rips\Karl Hector & The Malcouns - Can't Stand the Pressure [2015] [FLAC]\11 - The Cave.wav
Peak level 97.0 %
Extraction speed 1.5 X
Track quality 99.9 %
Test CRC 426F9D10
Copy CRC 426F9D10
Track not present in AccurateRip database
Copy OK
Track 12
Filename C:\Users\owner\Music\EAC Rips\Karl Hector & The Malcouns - Can't Stand the Pressure [2015] [FLAC]\12 - Irtijal Feat. Mocine Ramdan.wav
Peak level 97.4 %
Extraction speed 1.9 X
Track quality 100.0 %
Test CRC AC8FC1FE
Copy CRC AC8FC1FE
Track not present in AccurateRip database
Copy OK
Track 13
Filename C:\Users\owner\Music\EAC Rips\Karl Hector & The Malcouns - Can't Stand the Pressure [2015] [FLAC]\13 - Tamanrasset.wav
Peak level 96.3 %
Extraction speed 1.6 X
Track quality 99.9 %
Test CRC F173BC1F
Copy CRC F173BC1F
Track not present in AccurateRip database
Copy OK
Track 14
Filename C:\Users\owner\Music\EAC Rips\Karl Hector & The Malcouns - Can't Stand the Pressure [2015] [FLAC]\14 - J.B. Rip.wav
Peak level 89.7 %
Extraction speed 1.9 X
Track quality 100.0 %
Test CRC D1DE53CF
Copy CRC D1DE53CF
Track not present in AccurateRip database
Copy OK
Track 15
Filename C:\Users\owner\Music\EAC Rips\Karl Hector & The Malcouns - Can't Stand the Pressure [2015] [FLAC]\15 - Transition ]G[.wav
Peak level 98.7 %
Extraction speed 1.4 X
Track quality 100.0 %
Test CRC F6F7DBF7
Copy CRC F6F7DBF7
Track not present in AccurateRip database
Copy OK
Track 16
Filename C:\Users\owner\Music\EAC Rips\Karl Hector & The Malcouns - Can't Stand the Pressure [2015] [FLAC]\16 - Can't Stand The Pressure.wav
Peak level 98.7 %
Extraction speed 1.9 X
Track quality 100.0 %
Test CRC 416C80B7
Copy CRC 416C80B7
Track not present in AccurateRip database
Copy OK
Track 17
Filename C:\Users\owner\Music\EAC Rips\Karl Hector & The Malcouns - Can't Stand the Pressure [2015] [FLAC]\17 - M'Hammath (Live).wav
Peak level 96.3 %
Extraction speed 2.1 X
Track quality 100.0 %
Test CRC 7439F699
Copy CRC 7439F699
Track not present in AccurateRip database
Copy OK
Track 18
Filename C:\Users\owner\Music\EAC Rips\Karl Hector & The Malcouns - Can't Stand the Pressure [2015] [FLAC]\18 - Coomassi.wav
Peak level 97.4 %
Extraction speed 2.1 X
Track quality 100.0 %
Test CRC D3ED84D6
Copy CRC D3ED84D6
Track not present in AccurateRip database
Copy OK
Track 19
Filename C:\Users\owner\Music\EAC Rips\Karl Hector & The Malcouns - Can't Stand the Pressure [2015] [FLAC]\19 - Dege Dub.wav
Peak level 98.7 %
Extraction speed 2.2 X
Track quality 100.0 %
Test CRC 51431AE8
Copy CRC 51431AE8
Track not present in AccurateRip database
Copy OK
Track 20
Filename C:\Users\owner\Music\EAC Rips\Karl Hector & The Malcouns - Can't Stand the Pressure [2015] [FLAC]\20 - Transition ]F[.wav
Peak level 98.7 %
Extraction speed 1.4 X
Track quality 100.0 %
Test CRC B8DD54A6
Copy CRC B8DD54A6
Track not present in AccurateRip database
Copy OK
Track 21
Filename C:\Users\owner\Music\EAC Rips\Karl Hector & The Malcouns - Can't Stand the Pressure [2015] [FLAC]\21 - Medium Rare Pt. 1.wav
Peak level 97.5 %
Extraction speed 2.2 X
Track quality 100.0 %
Test CRC A594940D
Copy CRC A594940D
Track not present in AccurateRip database
Copy OK
Track 22
Filename C:\Users\owner\Music\EAC Rips\Karl Hector & The Malcouns - Can't Stand the Pressure [2015] [FLAC]\22 - The Funk (Happysad).wav
Peak level 98.7 %
Extraction speed 2.2 X
Track quality 100.0 %
Test CRC 0A656074
Copy CRC 0A656074
Track not present in AccurateRip database
Copy OK
Track 23
Filename C:\Users\owner\Music\EAC Rips\Karl Hector & The Malcouns - Can't Stand the Pressure [2015] [FLAC]\23 - Beyond Squares.wav
Peak level 97.4 %
Extraction speed 2.1 X
Track quality 100.0 %
Test CRC D47ACD2D
Copy CRC D47ACD2D
Track not present in AccurateRip database
Copy OK
Track 24
Filename C:\Users\owner\Music\EAC Rips\Karl Hector & The Malcouns - Can't Stand the Pressure [2015] [FLAC]\24 - Roads Of Otumpa (instrumental).wav
Peak level 95.3 %
Extraction speed 1.9 X
Track quality 99.9 %
Test CRC 35F0EE9A
Copy CRC 35F0EE9A
Track not present in AccurateRip database
Copy OK
None of the tracks are present in the AccurateRip database
No errors occurred
End of status report
---- CUETools DB Plugin V2.1.6
[CTDB TOCID: OnpnWUQdiMoBmQ5W_BQMLEht4nM-] database access error: The operation has timed out
==== Log checksum DA84C5C065910CA610611B7135B1E88975E7C38254C7F0E89902C69FF4440822 ====
 
Содержание индексной карты (.CUE)
REM GENRE Funk
REM DATE 2015
REM DISCID 89104818
REM COMMENT "ExactAudioCopy v1.1"
PERFORMER "Karl Hector & The Malcouns"
TITLE "Can't Stand the Pressure"
FILE "01 - Roads Of Optumpa (vocal) feat. Vovotinha.wav" WAVE
TRACK 01 AUDIO
TITLE "Roads Of Optumpa (vocal) feat. Vovotinha"
PERFORMER "Karl Hector & The Malcouns"
INDEX 01 00:00:00
FILE "02 - Leealeh.wav" WAVE
TRACK 02 AUDIO
TITLE "Leealeh"
PERFORMER "Karl Hector & The Malcouns"
INDEX 01 00:00:00
FILE "03 - Ngunga Yeti Fofa Feat. Nicolas Tounga.wav" WAVE
TRACK 03 AUDIO
TITLE "Ngunga Yeti Fofa Feat. Nicolas Tounga"
PERFORMER "Karl Hector & The Malcouns"
INDEX 01 00:00:00
FILE "04 - Kingdom Of D'MT.wav" WAVE
TRACK 04 AUDIO
TITLE "Kingdom Of D'MT"
PERFORMER "Karl Hector & The Malcouns"
INDEX 01 00:00:00
FILE "05 - Shanagold.wav" WAVE
TRACK 05 AUDIO
TITLE "Shanagold"
PERFORMER "Karl Hector & The Malcouns"
INDEX 01 00:00:00
FILE "06 - Circles.wav" WAVE
TRACK 06 AUDIO
TITLE "Circles"
PERFORMER "Karl Hector & The Malcouns"
INDEX 01 00:00:00
FILE "07 - Chess Break.wav" WAVE
TRACK 07 AUDIO
TITLE "Chess Break"
PERFORMER "Karl Hector & The Malcouns"
INDEX 01 00:00:00
FILE "08 - Ka Rica-Tar.wav" WAVE
TRACK 08 AUDIO
TITLE "Ka Rica-Tar"
PERFORMER "Karl Hector & The Malcouns"
INDEX 01 00:00:00
FILE "09 - Transition ]X[.wav" WAVE
TRACK 09 AUDIO
TITLE "Transition >X<"
PERFORMER "Karl Hector & The Malcouns"
INDEX 01 00:00:00
FILE "10 - Orange.wav" WAVE
TRACK 10 AUDIO
TITLE "Orange"
PERFORMER "Karl Hector & The Malcouns"
INDEX 01 00:00:00
FILE "11 - The Cave.wav" WAVE
TRACK 11 AUDIO
TITLE "The Cave"
PERFORMER "Karl Hector & The Malcouns"
INDEX 01 00:00:00
FILE "12 - Irtijal Feat. Mocine Ramdan.wav" WAVE
TRACK 12 AUDIO
TITLE "Irtijal Feat. Mocine Ramdan"
PERFORMER "Karl Hector & The Malcouns"
INDEX 01 00:00:00
FILE "13 - Tamanrasset.wav" WAVE
TRACK 13 AUDIO
TITLE "Tamanrasset"
PERFORMER "Karl Hector & The Malcouns"
INDEX 01 00:00:00
FILE "14 - J.B. Rip.wav" WAVE
TRACK 14 AUDIO
TITLE "J.B. Rip"
PERFORMER "Karl Hector & The Malcouns"
INDEX 01 00:00:00
FILE "15 - Transition ]G[.wav" WAVE
TRACK 15 AUDIO
TITLE "Transition >G<"
PERFORMER "Karl Hector & The Malcouns"
INDEX 01 00:00:00
FILE "16 - Can't Stand The Pressure.wav" WAVE
TRACK 16 AUDIO
TITLE "Can't Stand The Pressure"
PERFORMER "Karl Hector & The Malcouns"
INDEX 01 00:00:00
FILE "17 - M'Hammath (Live).wav" WAVE
TRACK 17 AUDIO
TITLE "M'Hammath (Live)"
PERFORMER "Karl Hector & The Malcouns"
INDEX 01 00:00:00
FILE "18 - Coomassi.wav" WAVE
TRACK 18 AUDIO
TITLE "Coomassi"
PERFORMER "Karl Hector & The Malcouns"
INDEX 01 00:00:00
FILE "19 - Dege Dub.wav" WAVE
TRACK 19 AUDIO
TITLE "Dege Dub"
PERFORMER "Karl Hector & The Malcouns"
INDEX 01 00:00:00
FILE "20 - Transition ]F[.wav" WAVE
TRACK 20 AUDIO
TITLE "Transition >F<"
PERFORMER "Karl Hector & The Malcouns"
INDEX 01 00:00:00
FILE "21 - Medium Rare Pt. 1.wav" WAVE
TRACK 21 AUDIO
TITLE "Medium Rare Pt. 1"
PERFORMER "Karl Hector & The Malcouns"
INDEX 01 00:00:00
FILE "22 - The Funk (Happysad).wav" WAVE
TRACK 22 AUDIO
TITLE "The Funk (Happysad)"
PERFORMER "Karl Hector & The Malcouns"
INDEX 01 00:00:00
FILE "23 - Beyond Squares.wav" WAVE
TRACK 23 AUDIO
TITLE "Beyond Squares"
PERFORMER "Karl Hector & The Malcouns"
INDEX 01 00:00:00
FILE "24 - Roads Of Otumpa (instrumental).wav" WAVE
TRACK 24 AUDIO
TITLE "Roads Of Otumpa (instrumental)"
PERFORMER "Karl Hector & The Malcouns"
INDEX 01 00:00:00
21:41
214
Нет комментариев. Ваш будет первым!