Поиск

(World) Orchestra Ethiopia - Ethiopiques, Vol.23 - 2007, FLAC (tracks+.cue), lossless

(World) Orchestra Ethiopia - Ethiopiques, Vol.23 - 2007, FLAC (tracks+.cue), lossless
Треклист:
Orchestra Ethiopia / Ethiopiques, Vol.23
Жанр: World
Страна-производитель диска (релиза): France
Год издания: 2007
Издатель (лейбл): Buda Musique
Номер по каталогу: 860152
Страна исполнителя (группы): Ethiopia
Аудиокодек: FLAC (*.flac)
Тип рипа: tracks+.cue
Битрейт аудио: lossless
Продолжительность: 01:15:10
Источник (релизер): whatcd
Наличие сканов в содержимом раздачи: нет
Треклист:
01. Orchestra Ethiopia - Tezeta (4:46)
02. Orchestra Ethiopia - Tennesh Mekedda (2:12)
03. Orchestra Ethiopia - Mamitenna Kebbede (3:26)
04. Orchestra Ethiopia - Hode (1:49)
05. Orchestra Ethiopia - Keto Ayqerem Motu (3:51)
06. Orchestra Ethiopia - Datchena Koba (2:24)
07. Orchestra Ethiopia - Medinanna Zelesegna (6:19)
08. Orchestra Ethiopia - Shegitu (4:00)
09. Orchestra Ethiopia - Yehetsanu Leqso (2:53)
10. Orchestra Ethiopia - Helawsho (1:21)
11. Orchestra Ethiopia - Leqedame Atbiya (3:05)
12. Orchestra Ethiopia - Besetchet (2:59)
13. Orchestra Ethiopia - Lale Guma (4:05)
14. Orchestra Ethiopia - Wolayta Krar (1:46)
15. Orchestra Ethiopia - Derbabe (3:12)
16. Orchestra Ethiopia - Aba Balano Shanka (4:01)
17. Orchestra Ethiopia - Senbet (5:36)
18. Orchestra Ethiopia - Goraw (4:29)
19. Orchestra Ethiopia - Sheb Robe (2:06)
20. Orchestra Ethiopia - Od (1:35)
21. Orchestra Ethiopia - Shama Kefena (2:35)
22. Orchestra Ethiopia - Teraraw (2:15)
23. Orchestra Ethiopia - Semesh Man New? (4:18)
 
Лог создания рипа
X Lossless Decoder version 20101212 (126.2)
XLD extraction logfile from 2011-01-03 13:40:28 +0100
Orchestra Ethiopia / Éthiopiques 23: Orchestra Ethiopia
Used drive : MATSHITA DVD-R UJ-868 (revision KB19)
Ripper mode : CDParanoia III 10.2
Disable audio cache : OK for the drive with a cache less than 2750KiB
Make use of C2 pointers : NO
Read offset correction : 102
Max retry count : 100
Gap status : Analyzed, Appended
TOC of the extracted CD
Track | Start | Length | Start sector | End sector
---------------------------------------------------------
1 | 00:00:00 | 04:46:33 | 0 | 21482
2 | 04:46:33 | 02:11:56 | 21483 | 31363
3 | 06:58:14 | 03:25:46 | 31364 | 46784
4 | 10:23:60 | 01:48:48 | 46785 | 54932
5 | 12:12:33 | 03:50:40 | 54933 | 72222
6 | 16:02:73 | 02:24:00 | 72223 | 83022
7 | 18:26:73 | 06:19:28 | 83023 | 111475
8 | 24:46:26 | 03:59:44 | 111476 | 129444
9 | 28:45:70 | 02:52:65 | 129445 | 142409
10 | 31:38:60 | 01:20:56 | 142410 | 148465
11 | 32:59:41 | 03:05:16 | 148466 | 162356
12 | 36:04:57 | 02:59:10 | 162357 | 175791
13 | 39:03:67 | 04:05:14 | 175792 | 194180
14 | 43:09:06 | 01:45:67 | 194181 | 202122
15 | 44:54:73 | 03:12:20 | 202123 | 216542
16 | 48:07:18 | 04:01:09 | 216543 | 234626
17 | 52:08:27 | 05:35:54 | 234627 | 259805
18 | 57:44:06 | 04:28:39 | 259806 | 279944
19 | 62:12:45 | 02:06:33 | 279945 | 289427
20 | 64:19:03 | 01:34:74 | 289428 | 296551
21 | 65:54:02 | 02:35:34 | 296552 | 308210
22 | 68:29:36 | 02:14:47 | 308211 | 318307
23 | 70:44:08 | 04:18:07 | 318308 | 337664
24 | 77:34:15 | 00:19:17 | 349065 | 350506
AccurateRip Summary
Track 01 : OK (confidence 2)
Track 02 : OK (confidence 2)
Track 03 : OK (confidence 2)
Track 04 : OK (confidence 2)
Track 05 : OK (confidence 2)
Track 06 : OK (confidence 2)
Track 07 : OK (confidence 2)
Track 08 : OK (confidence 2)
Track 09 : OK (confidence 2)
Track 10 : OK (confidence 2)
Track 11 : OK (confidence 2)
Track 12 : OK (confidence 2)
Track 13 : OK (confidence 2)
Track 14 : OK (confidence 2)
Track 15 : Not Found
Track 16 : OK (confidence 2)
Track 17 : OK (confidence 2)
Track 18 : OK (confidence 2)
Track 19 : OK (confidence 2)
Track 20 : OK (confidence 2)
Track 21 : OK (confidence 2)
Track 22 : OK (confidence 2)
Track 23 : OK (confidence 2)
->22 track(s) accurately ripped, 0 track(s) not, 1 track(s) not found
All Tracks
Album gain : -8.15 dB
Peak : 1.000000
Statistics
Read error : 0
Skipped (treated as error) : 0
Edge jitter error (maybe fixed) : 3
Atom jitter error (maybe fixed) : 1
Drift error (maybe fixed) : 1
Dropped bytes error (maybe fixed) : 2
Duplicated bytes error (maybe fixed) : 1
Track 01
Filename : /Volumes/Sans titre 2/Torrents/Orchestra Ethiopia - Éthiopiques 23: Orchestra Ethiopia (1975) [FLAC]/01 Tezeta.flac
Pre-gap length : 00:02:00
Track gain : -5.79 dB
Peak : 1.000000
CRC32 hash (test run) : A87CA16F
CRC32 hash : A87CA16F
CRC32 hash (skip zero) : 752F2731
AccurateRip signature : D8A93EA0
->Accurately ripped! (confidence 2)
Statistics
Read error : 0
Skipped (treated as error) : 0
Edge jitter error (maybe fixed) : 0
Atom jitter error (maybe fixed) : 0
Drift error (maybe fixed) : 0
Dropped bytes error (maybe fixed) : 0
Duplicated bytes error (maybe fixed) : 0
Inconsistency in error sectors : 0
Track 02
Filename : /Volumes/Sans titre 2/Torrents/Orchestra Ethiopia - Éthiopiques 23: Orchestra Ethiopia (1975) [FLAC]/02 Tennesh Mèkèdda.flac
Pre-gap length : 00:02:24
Track gain : -3.40 dB
Peak : 0.727203
CRC32 hash (test run) : 2AF4CC64
CRC32 hash : 2AF4CC64
CRC32 hash (skip zero) : 34D6B0DC
AccurateRip signature : F4884DB4
->Accurately ripped! (confidence 2)
Statistics
Read error : 0
Skipped (treated as error) : 0
Edge jitter error (maybe fixed) : 0
Atom jitter error (maybe fixed) : 0
Drift error (maybe fixed) : 0
Dropped bytes error (maybe fixed) : 0
Duplicated bytes error (maybe fixed) : 0
Inconsistency in error sectors : 0
Track 03
Filename : /Volumes/Sans titre 2/Torrents/Orchestra Ethiopia - Éthiopiques 23: Orchestra Ethiopia (1975) [FLAC]/03 Mamiténna Kèbbèdè.flac
Pre-gap length : 00:02:24
Track gain : -5.34 dB
Peak : 1.000000
CRC32 hash (test run) : 2D38C0A1
CRC32 hash : 2D38C0A1
CRC32 hash (skip zero) : 87AAE95D
AccurateRip signature : 30E7643C
->Accurately ripped! (confidence 2)
Statistics
Read error : 0
Skipped (treated as error) : 0
Edge jitter error (maybe fixed) : 0
Atom jitter error (maybe fixed) : 0
Drift error (maybe fixed) : 0
Dropped bytes error (maybe fixed) : 0
Duplicated bytes error (maybe fixed) : 0
Inconsistency in error sectors : 0
Track 04
Filename : /Volumes/Sans titre 2/Torrents/Orchestra Ethiopia - Éthiopiques 23: Orchestra Ethiopia (1975) [FLAC]/04 Hodé.flac
Pre-gap length : 00:02:32
Track gain : -6.98 dB
Peak : 0.988922
CRC32 hash (test run) : C95923A8
CRC32 hash : C95923A8
CRC32 hash (skip zero) : 84D260B8
AccurateRip signature : B84D1368
->Accurately ripped! (confidence 2)
Statistics
Read error : 0
Skipped (treated as error) : 0
Edge jitter error (maybe fixed) : 1
Atom jitter error (maybe fixed) : 1
Drift error (maybe fixed) : 0
Dropped bytes error (maybe fixed) : 0
Duplicated bytes error (maybe fixed) : 0
Inconsistency in error sectors : 0
Track 05
Filename : /Volumes/Sans titre 2/Torrents/Orchestra Ethiopia - Éthiopiques 23: Orchestra Ethiopia (1975) [FLAC]/05 Kèto Ayqèrem Motu.flac
Pre-gap length : 00:02:24
Track gain : -6.76 dB
Peak : 0.902832
CRC32 hash (test run) : 914CB4DB
CRC32 hash : 914CB4DB
CRC32 hash (skip zero) : 05D4D903
AccurateRip signature : 119D8217
->Accurately ripped! (confidence 2)
Statistics
Read error : 0
Skipped (treated as error) : 0
Edge jitter error (maybe fixed) : 0
Atom jitter error (maybe fixed) : 0
Drift error (maybe fixed) : 0
Dropped bytes error (maybe fixed) : 0
Duplicated bytes error (maybe fixed) : 0
Inconsistency in error sectors : 0
Track 06
Filename : /Volumes/Sans titre 2/Torrents/Orchestra Ethiopia - Éthiopiques 23: Orchestra Ethiopia (1975) [FLAC]/06 Datchèna Koba.flac
Pre-gap length : 00:02:24
Track gain : -5.27 dB
Peak : 0.986176
CRC32 hash (test run) : 50CAD4BF
CRC32 hash : 50CAD4BF
CRC32 hash (skip zero) : 0251387B
AccurateRip signature : 7FE37028
->Accurately ripped! (confidence 2)
Statistics
Read error : 0
Skipped (treated as error) : 0
Edge jitter error (maybe fixed) : 0
Atom jitter error (maybe fixed) : 0
Drift error (maybe fixed) : 0
Dropped bytes error (maybe fixed) : 0
Duplicated bytes error (maybe fixed) : 0
Inconsistency in error sectors : 0
Track 07
Filename : /Volumes/Sans titre 2/Torrents/Orchestra Ethiopia - Éthiopiques 23: Orchestra Ethiopia (1975) [FLAC]/07 Mèdinanna Zèlèsègna.flac
Pre-gap length : 00:02:24
Track gain : -7.37 dB
Peak : 0.981079
CRC32 hash (test run) : B6DEF284
CRC32 hash : B6DEF284
CRC32 hash (skip zero) : F74E9AD5
AccurateRip signature : C103AC72
->Accurately ripped! (confidence 2)
Statistics
Read error : 0
Skipped (treated as error) : 0
Edge jitter error (maybe fixed) : 0
Atom jitter error (maybe fixed) : 0
Drift error (maybe fixed) : 0
Dropped bytes error (maybe fixed) : 0
Duplicated bytes error (maybe fixed) : 0
Inconsistency in error sectors : 0
Track 08
Filename : /Volumes/Sans titre 2/Torrents/Orchestra Ethiopia - Éthiopiques 23: Orchestra Ethiopia (1975) [FLAC]/08 Shègitu.flac
Pre-gap length : 00:03:11
Track gain : -7.15 dB
Peak : 0.988861
CRC32 hash (test run) : AA6E258C
CRC32 hash : AA6E258C
CRC32 hash (skip zero) : 5859E520
AccurateRip signature : 97F26F21
->Accurately ripped! (confidence 2)
Statistics
Read error : 0
Skipped (treated as error) : 0
Edge jitter error (maybe fixed) : 0
Atom jitter error (maybe fixed) : 0
Drift error (maybe fixed) : 0
Dropped bytes error (maybe fixed) : 0
Duplicated bytes error (maybe fixed) : 0
Inconsistency in error sectors : 0
Track 09
Filename : /Volumes/Sans titre 2/Torrents/Orchestra Ethiopia - Éthiopiques 23: Orchestra Ethiopia (1975) [FLAC]/09 Yèhetsanu Lèqso.flac
Pre-gap length : 00:02:24
Track gain : -7.87 dB
Peak : 0.989075
CRC32 hash (test run) : 746536DD
CRC32 hash : 746536DD
CRC32 hash (skip zero) : 1DE33EAD
AccurateRip signature : 3DCC5FB0
->Accurately ripped! (confidence 2)
Statistics
Read error : 0
Skipped (treated as error) : 0
Edge jitter error (maybe fixed) : 0
Atom jitter error (maybe fixed) : 0
Drift error (maybe fixed) : 0
Dropped bytes error (maybe fixed) : 0
Duplicated bytes error (maybe fixed) : 0
Inconsistency in error sectors : 0
Track 10
Filename : /Volumes/Sans titre 2/Torrents/Orchestra Ethiopia - Éthiopiques 23: Orchestra Ethiopia (1975) [FLAC]/10 Hèlawsho.flac
Pre-gap length : 00:02:44
Track gain : -6.26 dB
Peak : 0.988525
CRC32 hash (test run) : 6A31B750
CRC32 hash : 6A31B750
CRC32 hash (skip zero) : 3F7DA509
AccurateRip signature : 253E3C54
->Accurately ripped! (confidence 2)
Statistics
Read error : 0
Skipped (treated as error) : 0
Edge jitter error (maybe fixed) : 0
Atom jitter error (maybe fixed) : 0
Drift error (maybe fixed) : 0
Dropped bytes error (maybe fixed) : 0
Duplicated bytes error (maybe fixed) : 0
Inconsistency in error sectors : 0
Track 11
Filename : /Volumes/Sans titre 2/Torrents/Orchestra Ethiopia - Éthiopiques 23: Orchestra Ethiopia (1975) [FLAC]/11 Lèqedamé Atbiya.flac
Pre-gap length : 00:02:06
Track gain : -8.40 dB
Peak : 0.988525
CRC32 hash (test run) : 8CBB2EF6
CRC32 hash : 8CBB2EF6
CRC32 hash (skip zero) : 7F7E761A
AccurateRip signature : 2DC18D0A
->Accurately ripped! (confidence 2)
Statistics
Read error : 0
Skipped (treated as error) : 0
Edge jitter error (maybe fixed) : 0
Atom jitter error (maybe fixed) : 0
Drift error (maybe fixed) : 0
Dropped bytes error (maybe fixed) : 0
Duplicated bytes error (maybe fixed) : 0
Inconsistency in error sectors : 0
Track 12
Filename : /Volumes/Sans titre 2/Torrents/Orchestra Ethiopia - Éthiopiques 23: Orchestra Ethiopia (1975) [FLAC]/12 Besetchet.flac
Pre-gap length : 00:02:24
Track gain : -7.49 dB
Peak : 0.988525
CRC32 hash (test run) : 57D6049A
CRC32 hash : 57D6049A
CRC32 hash (skip zero) : FAE826C7
AccurateRip signature : C40C7B87
->Accurately ripped! (confidence 2)
Statistics
Read error : 0
Skipped (treated as error) : 0
Edge jitter error (maybe fixed) : 1
Atom jitter error (maybe fixed) : 0
Drift error (maybe fixed) : 1
Dropped bytes error (maybe fixed) : 1
Duplicated bytes error (maybe fixed) : 0
Inconsistency in error sectors : 0
Track 13
Filename : /Volumes/Sans titre 2/Torrents/Orchestra Ethiopia - Éthiopiques 23: Orchestra Ethiopia (1975) [FLAC]/13 Lalé Guma.flac
Pre-gap length : 00:01:36
Track gain : -11.21 dB
Peak : 0.988525
CRC32 hash (test run) : B357790E
CRC32 hash : B357790E
CRC32 hash (skip zero) : 15A11E6A
AccurateRip signature : 032BF861
->Accurately ripped! (confidence 2)
Statistics
Read error : 0
Skipped (treated as error) : 0
Edge jitter error (maybe fixed) : 0
Atom jitter error (maybe fixed) : 0
Drift error (maybe fixed) : 0
Dropped bytes error (maybe fixed) : 0
Duplicated bytes error (maybe fixed) : 0
Inconsistency in error sectors : 0
Track 14
Filename : /Volumes/Sans titre 2/Torrents/Orchestra Ethiopia - Éthiopiques 23: Orchestra Ethiopia (1975) [FLAC]/14 Wolayta Krar.flac
Pre-gap length : 00:01:18
Track gain : -9.37 dB
Peak : 0.988525
CRC32 hash (test run) : B560EE8D
CRC32 hash : B560EE8D
CRC32 hash (skip zero) : 44F4DA9E
AccurateRip signature : 5D93DD18
->Accurately ripped! (confidence 2)
Statistics
Read error : 0
Skipped (treated as error) : 0
Edge jitter error (maybe fixed) : 0
Atom jitter error (maybe fixed) : 0
Drift error (maybe fixed) : 0
Dropped bytes error (maybe fixed) : 0
Duplicated bytes error (maybe fixed) : 0
Inconsistency in error sectors : 0
Track 15
Filename : /Volumes/Sans titre 2/Torrents/Orchestra Ethiopia - Éthiopiques 23: Orchestra Ethiopia (1975) [FLAC]/15 Dèrbabé.flac
Pre-gap length : 00:01:36
Track gain : -10.62 dB
Peak : 0.988525
CRC32 hash (test run) : 6EB67F2A
CRC32 hash : 6EB67F2A
CRC32 hash (skip zero) : 8DBD7CEC
AccurateRip signature : 1C4576FC
->Track not present in AccurateRip database.
Statistics
Read error : 0
Skipped (treated as error) : 0
Edge jitter error (maybe fixed) : 0
Atom jitter error (maybe fixed) : 0
Drift error (maybe fixed) : 0
Dropped bytes error (maybe fixed) : 0
Duplicated bytes error (maybe fixed) : 0
Inconsistency in error sectors : 0
Track 16
Filename : /Volumes/Sans titre 2/Torrents/Orchestra Ethiopia - Éthiopiques 23: Orchestra Ethiopia (1975) [FLAC]/16 Aba Balano Shanka.flac
Pre-gap length : 00:01:70
Track gain : -6.32 dB
Peak : 0.988525
CRC32 hash (test run) : 8F99CDEC
CRC32 hash : 8F99CDEC
CRC32 hash (skip zero) : 7739BAA5
AccurateRip signature : 22BBDBD7
->Accurately ripped! (confidence 2)
Statistics
Read error : 0
Skipped (treated as error) : 0
Edge jitter error (maybe fixed) : 0
Atom jitter error (maybe fixed) : 0
Drift error (maybe fixed) : 0
Dropped bytes error (maybe fixed) : 0
Duplicated bytes error (maybe fixed) : 0
Inconsistency in error sectors : 0
Track 17
Filename : /Volumes/Sans titre 2/Torrents/Orchestra Ethiopia - Éthiopiques 23: Orchestra Ethiopia (1975) [FLAC]/17 Sènbèt.flac
Pre-gap length : 00:02:08
Track gain : -6.76 dB
Peak : 0.988525
CRC32 hash (test run) : 6BF99502
CRC32 hash : 6BF99502
CRC32 hash (skip zero) : A68A6E6C
AccurateRip signature : B713F54E
->Accurately ripped! (confidence 2)
Statistics
Read error : 0
Skipped (treated as error) : 0
Edge jitter error (maybe fixed) : 0
Atom jitter error (maybe fixed) : 0
Drift error (maybe fixed) : 0
Dropped bytes error (maybe fixed) : 0
Duplicated bytes error (maybe fixed) : 0
Inconsistency in error sectors : 0
Track 18
Filename : /Volumes/Sans titre 2/Torrents/Orchestra Ethiopia - Éthiopiques 23: Orchestra Ethiopia (1975) [FLAC]/18 Goraw.flac
Pre-gap length : 00:01:63
Track gain : -8.08 dB
Peak : 0.988525
CRC32 hash (test run) : 2811AA62
CRC32 hash : 2811AA62
CRC32 hash (skip zero) : FFACB647
AccurateRip signature : 33C76E33
->Accurately ripped! (confidence 2)
Statistics
Read error : 0
Skipped (treated as error) : 0
Edge jitter error (maybe fixed) : 0
Atom jitter error (maybe fixed) : 0
Drift error (maybe fixed) : 0
Dropped bytes error (maybe fixed) : 0
Duplicated bytes error (maybe fixed) : 0
Inconsistency in error sectors : 0
Track 19
Filename : /Volumes/Sans titre 2/Torrents/Orchestra Ethiopia - Éthiopiques 23: Orchestra Ethiopia (1975) [FLAC]/19 Shèb Robé.flac
Pre-gap length : 00:02:24
Track gain : -5.90 dB
Peak : 0.988525
CRC32 hash (test run) : F4799A44
CRC32 hash : F4799A44
CRC32 hash (skip zero) : 54EB82BC
AccurateRip signature : 282AF8B0
->Accurately ripped! (confidence 2)
Statistics
Read error : 0
Skipped (treated as error) : 0
Edge jitter error (maybe fixed) : 0
Atom jitter error (maybe fixed) : 0
Drift error (maybe fixed) : 0
Dropped bytes error (maybe fixed) : 0
Duplicated bytes error (maybe fixed) : 0
Inconsistency in error sectors : 0
Track 20
Filename : /Volumes/Sans titre 2/Torrents/Orchestra Ethiopia - Éthiopiques 23: Orchestra Ethiopia (1975) [FLAC]/20 Od.flac
Pre-gap length : 00:01:44
Track gain : -8.76 dB
Peak : 0.988525
CRC32 hash (test run) : B083D7A0
CRC32 hash : B083D7A0
CRC32 hash (skip zero) : F52DC6E7
AccurateRip signature : 233C77B4
->Accurately ripped! (confidence 2)
Statistics
Read error : 0
Skipped (treated as error) : 0
Edge jitter error (maybe fixed) : 0
Atom jitter error (maybe fixed) : 0
Drift error (maybe fixed) : 0
Dropped bytes error (maybe fixed) : 0
Duplicated bytes error (maybe fixed) : 0
Inconsistency in error sectors : 0
Track 21
Filename : /Volumes/Sans titre 2/Torrents/Orchestra Ethiopia - Éthiopiques 23: Orchestra Ethiopia (1975) [FLAC]/21 Shama Kèfèna.flac
Pre-gap length : 00:01:68
Track gain : -7.43 dB
Peak : 0.988525
CRC32 hash (test run) : A8DCDD68
CRC32 hash : A8DCDD68
CRC32 hash (skip zero) : C49933DA
AccurateRip signature : 70B69A9C
->Accurately ripped! (confidence 2)
Statistics
Read error : 0
Skipped (treated as error) : 0
Edge jitter error (maybe fixed) : 0
Atom jitter error (maybe fixed) : 0
Drift error (maybe fixed) : 0
Dropped bytes error (maybe fixed) : 0
Duplicated bytes error (maybe fixed) : 0
Inconsistency in error sectors : 0
Track 22
Filename : /Volumes/Sans titre 2/Torrents/Orchestra Ethiopia - Éthiopiques 23: Orchestra Ethiopia (1975) [FLAC]/22 Tèraraw.flac
Pre-gap length : 00:02:42
Track gain : -8.22 dB
Peak : 0.926331
CRC32 hash (test run) : 3F76C076
CRC32 hash : 3F76C076
CRC32 hash (skip zero) : 07D14FAA
AccurateRip signature : F811CDDA
->Accurately ripped! (confidence 2)
Statistics
Read error : 0
Skipped (treated as error) : 0
Edge jitter error (maybe fixed) : 1
Atom jitter error (maybe fixed) : 0
Drift error (maybe fixed) : 0
Dropped bytes error (maybe fixed) : 1
Duplicated bytes error (maybe fixed) : 1
Inconsistency in error sectors : 0
Track 23
Filename : /Volumes/Sans titre 2/Torrents/Orchestra Ethiopia - Éthiopiques 23: Orchestra Ethiopia (1975) [FLAC]/23 Semesh Man Nèw ?.flac
Pre-gap length : 00:01:70
Track gain : -8.75 dB
Peak : 0.988525
CRC32 hash (test run) : C22E4B9B
CRC32 hash : C22E4B9B
CRC32 hash (skip zero) : FF74A384
AccurateRip signature : 4B3ADE55
->Accurately ripped! (confidence 2)
Statistics
Read error : 0
Skipped (treated as error) : 0
Edge jitter error (maybe fixed) : 0
Atom jitter error (maybe fixed) : 0
Drift error (maybe fixed) : 0
Dropped bytes error (maybe fixed) : 0
Duplicated bytes error (maybe fixed) : 0
Inconsistency in error sectors : 0
No errors occurred
End of status report
 
Содержание индексной карты (.CUE)
TITLE "Éthiopiques 23: Orchestra Ethiopia"
REM GENRE "World"
REM DATE 1975
REM DISCID 76124118
REM REPLAYGAIN_ALBUM_GAIN -8.15 dB
REM REPLAYGAIN_ALBUM_PEAK 1.000000
FILE "01 Tezeta.wav" WAVE
TRACK 01 AUDIO
TITLE "Tezeta"
PERFORMER "Orchestra Ethiopia"
REM REPLAYGAIN_TRACK_GAIN -5.79 dB
REM REPLAYGAIN_TRACK_PEAK 1.000000
INDEX 01 00:00:00
TRACK 02 AUDIO
TITLE "Tennesh Mèkèdda"
PERFORMER "Orchestra Ethiopia"
REM REPLAYGAIN_TRACK_GAIN -3.40 dB
REM REPLAYGAIN_TRACK_PEAK 0.727203
INDEX 00 04:44:09
FILE "02 Tennesh Mèkèdda.wav" WAVE
INDEX 01 00:00:00
TRACK 03 AUDIO
TITLE "Mamiténna Kèbbèdè"
PERFORMER "Orchestra Ethiopia"
REM REPLAYGAIN_TRACK_GAIN -5.34 dB
REM REPLAYGAIN_TRACK_PEAK 1.000000
INDEX 00 02:09:32
FILE "03 Mamiténna Kèbbèdè.wav" WAVE
INDEX 01 00:00:00
TRACK 04 AUDIO
TITLE "Hodé"
PERFORMER "Orchestra Ethiopia"
REM REPLAYGAIN_TRACK_GAIN -6.98 dB
REM REPLAYGAIN_TRACK_PEAK 0.988922
INDEX 00 03:23:14
FILE "04 Hodé.wav" WAVE
INDEX 01 00:00:00
TRACK 05 AUDIO
TITLE "Kèto Ayqèrem Motu"
PERFORMER "Orchestra Ethiopia"
REM REPLAYGAIN_TRACK_GAIN -6.76 dB
REM REPLAYGAIN_TRACK_PEAK 0.902832
INDEX 00 01:46:24
FILE "05 Kèto Ayqèrem Motu.wav" WAVE
INDEX 01 00:00:00
TRACK 06 AUDIO
TITLE "Datchèna Koba"
PERFORMER "Orchestra Ethiopia"
REM REPLAYGAIN_TRACK_GAIN -5.27 dB
REM REPLAYGAIN_TRACK_PEAK 0.986176
INDEX 00 03:48:16
FILE "06 Datchèna Koba.wav" WAVE
INDEX 01 00:00:00
TRACK 07 AUDIO
TITLE "Mèdinanna Zèlèsègna"
PERFORMER "Orchestra Ethiopia"
REM REPLAYGAIN_TRACK_GAIN -7.37 dB
REM REPLAYGAIN_TRACK_PEAK 0.981079
INDEX 00 02:21:51
FILE "07 Mèdinanna Zèlèsègna.wav" WAVE
INDEX 01 00:00:00
TRACK 08 AUDIO
TITLE "Shègitu"
PERFORMER "Orchestra Ethiopia"
REM REPLAYGAIN_TRACK_GAIN -7.15 dB
REM REPLAYGAIN_TRACK_PEAK 0.988861
INDEX 00 06:16:17
FILE "08 Shègitu.wav" WAVE
INDEX 01 00:00:00
TRACK 09 AUDIO
TITLE "Yèhetsanu Lèqso"
PERFORMER "Orchestra Ethiopia"
REM REPLAYGAIN_TRACK_GAIN -7.87 dB
REM REPLAYGAIN_TRACK_PEAK 0.989075
INDEX 00 03:57:20
FILE "09 Yèhetsanu Lèqso.wav" WAVE
INDEX 01 00:00:00
TRACK 10 AUDIO
TITLE "Hèlawsho"
PERFORMER "Orchestra Ethiopia"
REM REPLAYGAIN_TRACK_GAIN -6.26 dB
REM REPLAYGAIN_TRACK_PEAK 0.988525
INDEX 00 02:50:21
FILE "10 Hèlawsho.wav" WAVE
INDEX 01 00:00:00
TRACK 11 AUDIO
TITLE "Lèqedamé Atbiya"
PERFORMER "Orchestra Ethiopia"
REM REPLAYGAIN_TRACK_GAIN -8.40 dB
REM REPLAYGAIN_TRACK_PEAK 0.988525
INDEX 00 01:18:50
FILE "11 Lèqedamé Atbiya.wav" WAVE
INDEX 01 00:00:00
TRACK 12 AUDIO
TITLE "Besetchet"
PERFORMER "Orchestra Ethiopia"
REM REPLAYGAIN_TRACK_GAIN -7.49 dB
REM REPLAYGAIN_TRACK_PEAK 0.988525
INDEX 00 03:02:67
FILE "12 Besetchet.wav" WAVE
INDEX 01 00:00:00
TRACK 13 AUDIO
TITLE "Lalé Guma"
PERFORMER "Orchestra Ethiopia"
REM REPLAYGAIN_TRACK_GAIN -11.21 dB
REM REPLAYGAIN_TRACK_PEAK 0.988525
INDEX 00 02:57:49
FILE "13 Lalé Guma.wav" WAVE
INDEX 01 00:00:00
TRACK 14 AUDIO
TITLE "Wolayta Krar"
PERFORMER "Orchestra Ethiopia"
REM REPLAYGAIN_TRACK_GAIN -9.37 dB
REM REPLAYGAIN_TRACK_PEAK 0.988525
INDEX 00 04:03:71
FILE "14 Wolayta Krar.wav" WAVE
INDEX 01 00:00:00
TRACK 15 AUDIO
TITLE "Dèrbabé"
PERFORMER "Orchestra Ethiopia"
REM REPLAYGAIN_TRACK_GAIN -10.62 dB
REM REPLAYGAIN_TRACK_PEAK 0.988525
INDEX 00 01:44:31
FILE "15 Dèrbabé.wav" WAVE
INDEX 01 00:00:00
TRACK 16 AUDIO
TITLE "Aba Balano Shanka"
PERFORMER "Orchestra Ethiopia"
REM REPLAYGAIN_TRACK_GAIN -6.32 dB
REM REPLAYGAIN_TRACK_PEAK 0.988525
INDEX 00 03:10:25
FILE "16 Aba Balano Shanka.wav" WAVE
INDEX 01 00:00:00
TRACK 17 AUDIO
TITLE "Sènbèt"
PERFORMER "Orchestra Ethiopia"
REM REPLAYGAIN_TRACK_GAIN -6.76 dB
REM REPLAYGAIN_TRACK_PEAK 0.988525
INDEX 00 03:59:01
FILE "17 Sènbèt.wav" WAVE
INDEX 01 00:00:00
TRACK 18 AUDIO
TITLE "Goraw"
PERFORMER "Orchestra Ethiopia"
REM REPLAYGAIN_TRACK_GAIN -8.08 dB
REM REPLAYGAIN_TRACK_PEAK 0.988525
INDEX 00 05:33:66
FILE "18 Goraw.wav" WAVE
INDEX 01 00:00:00
TRACK 19 AUDIO
TITLE "Shèb Robé"
PERFORMER "Orchestra Ethiopia"
REM REPLAYGAIN_TRACK_GAIN -5.90 dB
REM REPLAYGAIN_TRACK_PEAK 0.988525
INDEX 00 04:26:15
FILE "19 Shèb Robé.wav" WAVE
INDEX 01 00:00:00
TRACK 20 AUDIO
TITLE "Od"
PERFORMER "Orchestra Ethiopia"
REM REPLAYGAIN_TRACK_GAIN -8.76 dB
REM REPLAYGAIN_TRACK_PEAK 0.988525
INDEX 00 02:04:64
FILE "20 Od.wav" WAVE
INDEX 01 00:00:00
TRACK 21 AUDIO
TITLE "Shama Kèfèna"
PERFORMER "Orchestra Ethiopia"
REM REPLAYGAIN_TRACK_GAIN -7.43 dB
REM REPLAYGAIN_TRACK_PEAK 0.988525
INDEX 00 01:33:06
FILE "21 Shama Kèfèna.wav" WAVE
INDEX 01 00:00:00
TRACK 22 AUDIO
TITLE "Tèraraw"
PERFORMER "Orchestra Ethiopia"
REM REPLAYGAIN_TRACK_GAIN -8.22 dB
REM REPLAYGAIN_TRACK_PEAK 0.926331
INDEX 00 02:32:67
FILE "22 Tèraraw.wav" WAVE
INDEX 01 00:00:00
TRACK 23 AUDIO
TITLE "Semesh Man Nèw ?"
PERFORMER "Orchestra Ethiopia"
REM REPLAYGAIN_TRACK_GAIN -8.75 dB
REM REPLAYGAIN_TRACK_PEAK 0.988525
INDEX 00 02:12:52
FILE "23 Semesh Man Nèw ?.wav" WAVE
INDEX 01 00:00:00
 
Об исполнителе (группе)
 
Об альбоме (сборнике)
Popmatters review:
The breadth of Ethiopian music made available by the Éthiopiques is one of the series’ great strengths. In 23 albums we’ve crossed from the rustic songs of farmers strumming bluntly on handmade guitars to mid-century pop singers in sharp shirts. Armed with this set of discs we can jump from a thoughtful pianist nun to a set of 12 songs dedicated to a specific instrument, the square-angled, 10-stringed begena harp. Not many countries get such a sustained examination of their musical output unless they are able to fund it wholly themselves, and few of those examinations are as popular outside the source nation as the Éthiopiques have come to be.
Éthiopiques 23 is devoted to Orchestra Ethiopia. It arrives with a lengthy biographical piece from one of the Orchestra’s past leaders, an American Peace Corps volunteer named Charles Sutton who describes the development of the band. Sutton says that he became interested in the group’s brand of southern Ethiopian folk when he stumbled on a room of musicians performing down an Addis Ababa alleyway in 1966. “It must be a great thing to play the mèssengo,” he remembers himself thinking afterwards as he walked back to his hotel.
The mèssengo is a fiddle with a soundbox shaped like a diamond and he did indeed get to play it, as we find out on this album in “Shègitu”. He sings too. We can hear the crowd breaking into waves of applause every time this tall, thin foreigner with his curved flop of hair manages to get his lines out in their native language. His voice is less sure of itself than those of the Ethiopian singers who appear in the rest of the disc, but you can hear that he was up for the challenge, a determined man in spite of the critics who labelled him with the insulting word ferenj, meaning white outsider.
A number of these old tracks have a muffled sound, as if they were recorded in the open air and it drew away some of their precise edges. This muffledness affects some tracks more than others, and some instruments more than others. The beating of drums in “Tennesh Mèkèdda” sounds distant, but the noises of flutes and strange winding instruments on the same track are very clear. The result is like the sound effects from a short cartoon, full of knocks, squeaks, and whees, the noise of unsuspecting animated cats being blattered on the head.
Other songs are more obviously folk-based. “Goraw” is a reworking of the traditional shellèla boasts exchanged by competing warriors before a fight. The boasts here have a ring of formality that in a European would sound mediaeval: knights calling to their rivals. The singer is accompanied by a washent flute and a punctuating rumble of threatening strings from a krar harp. “A discussion of shellèla may be found in Éthiopiques 14,” the liner notes for “Goraw” tell us in case we want to follow our exposure to this war song by learning more. This series has grown so dense that the notes habitually refer backwards as if they were part of an extensive library, which in fact they are. “Other fine Tezetas, as well as a discussion of the genre, may be found on Éthiopiques 10,” they point out in the information for “Tezeta,” while the details for “Kèto Ayqèrem Motu” state that the technique of the harpist on the song “differs, both texturally and melodically, from that of begenist Alèmu Aga, presented in Éthiopiques 11.”
Even if you don’t own all of the albums they’re referring to, you should still come away from these asides with the impression that you’re walking into a musical world that can expand indefinitely, one CD opening out into another, a musician on one disc reminding you of something that happened ten discs before. The out of kilter combination of voice and begena in “Kèto Ayqèrem Motu” harks back to the strangely similar sound of Alèmayèhu Eshèté from the album before it, Éthiopiques 22. It’s as if Eshèté with his fashionable suit and dreamboat hair had pulled this older, slower sound out of a bog where it had been preserved in situ like Tollund Man and sexed it up for a nightclub audience. That wobble swells out and establishes itself as a presence.
Like Eshèté and every other musician in Ethiopia, the Orchestra suffered with the arrival of the dictatorial Derg junta in 1974. In ‘75 the group fell apart. The legacy it left behind, as presented by Buda, is an eerie-sounding one, sitting partway between the countryside folk music atmosphere of Éthiopiques 12 and the modern professionalism of an Eshèté, between trained singing and artless strum. A good, solid folk group—in other words, talented musicians who were willing to tweak the old sounds and not take themselves too seriously while they were doing it. In the photographs that come with the CD almost all of them are smiling.
21:39
277
Нет комментариев. Ваш будет первым!