Поиск

(ACT Music, World Fusion, Crossover Jazz, Ethnic) [CD] Geir Lysne (feat. Nguyen Le, Huong Thanh, Solo Cissoko a.o.) - New Circle - 2013, FLAC (tracks+.cue), lossless

(ACT Music, World Fusion, Crossover Jazz, Ethnic) [CD] Geir Lysne (feat. Nguyen Le, Huong Thanh, Solo Cissoko a.o.) - New Circle - 2013, FLAC (tracks+.cue), lossless
Издатель (лейбл):
Треклист:
Geir Lysne
New Circle
Жанр: World Fusion, Crossover Jazz, Ethnic
Страна-производитель диска: EU
Год издания: 2013
Издатель (лейбл): ACT Music
Номер по каталогу: ACT 9561-2
Аудиокодек: FLAC (*.flac)
Тип рипа: tracks+.cue
Битрейт аудио: lossless
Продолжительность: 54:43
Источник (релизер): many thanks tdelyon
Наличие сканов в содержимом раздачи: да

Треклист:
1. Please Welcome!
2. Sakn
3. Kaa Is Back In Town
4. A Million Stars
5. 22
6. Amana Na Nunga
7. Alwilly
 
Лог создания рипа
Exact Audio Copy V1.0 beta 3 from 29. August 2011
EAC extraction logfile from 28. November 2013, 15:01
Geir Lysne / New Circle
Used drive : PHILIPS SPD3400CC Adapter: 3 ID: 0
Read mode : Secure
Utilize accurate stream : Yes
Defeat audio cache : Yes
Make use of C2 pointers : No
Read offset correction : 6
Overread into Lead-In and Lead-Out : No
Fill up missing offset samples with silence : Yes
Delete leading and trailing silent blocks : No
Null samples used in CRC calculations : Yes
Used interface : Installed external ASPI interface
Gap handling : Appended to previous track
Used output format : User Defined Encoder
Selected bitrate : 1024 kBit/s
Quality : High
Add ID3 tag : No
Command line compressor : C:\Program Files (x86)\Exact Audio Copy\FLAC\FLAC.EXE
Additional command line options : -8 -V -T "ARTIST=%artist%" -T "TITLE=%title%" -T "ALBUM=%albumtitle%" -T "DATE=%year%" -T "TRACKNUMBER=%tracknr%" -T "TOTALTRACKS=%numtracks%" -T "GENRE=%genre%" -T "ALBUM ARTIST=%albumartist%" -T "ALBUMARTIST=%albumartist%" -T "COMMENT=EAC V1.0 beta 3, Secure Mode, Test & Copy, AccurateRip, FLAC -8" %source%
TOC of the extracted CD
Track | Start | Length | Start sector | End sector
---------------------------------------------------------
1 | 0:00.00 | 8:20.05 | 0 | 37504
2 | 8:20.05 | 6:47.44 | 37505 | 68073
3 | 15:07.49 | 8:05.32 | 68074 | 104480
4 | 23:13.06 | 11:39.61 | 104481 | 156966
5 | 34:52.67 | 5:15.14 | 156967 | 180605
6 | 40:08.06 | 8:11.64 | 180606 | 217494
7 | 48:19.70 | 6:24.11 | 217495 | 246305
Track 1
Filename C:\Rips\01 Please Welcome !.wav
Pre-gap length 0:00:02.00
Peak level 96.5 %
Extraction speed 2.1 X
Track quality 100.0 %
Test CRC F8F4DC43
Copy CRC F8F4DC43
Track not present in AccurateRip database
Copy OK
Track 2
Filename C:\Rips\02 Sakn.wav
Pre-gap length 0:00:00.04
Peak level 60.3 %
Extraction speed 2.4 X
Track quality 100.0 %
Test CRC 2B1D6816
Copy CRC 2B1D6816
Track not present in AccurateRip database
Copy OK
Track 3
Filename C:\Rips\03 Kaa Is Back In Town.wav
Pre-gap length 0:00:00.49
Peak level 96.5 %
Extraction speed 2.8 X
Track quality 100.0 %
Test CRC D8ADC5BD
Copy CRC D8ADC5BD
Track not present in AccurateRip database
Copy OK
Track 4
Filename C:\Rips\04 A Million Stars.wav
Pre-gap length 0:00:00.23
Peak level 96.5 %
Extraction speed 3.0 X
Track quality 99.9 %
Test CRC C9080AA6
Copy CRC C9080AA6
Track not present in AccurateRip database
Copy OK
Track 5
Filename C:\Rips\05 22.wav
Peak level 64.5 %
Extraction speed 3.3 X
Track quality 100.0 %
Test CRC B2556419
Copy CRC B2556419
Track not present in AccurateRip database
Copy OK
Track 6
Filename C:\Rips\06 Amana Na Nunga.wav
Pre-gap length 0:00:00.02
Peak level 96.5 %
Extraction speed 3.7 X
Track quality 100.0 %
Test CRC 7932E7A7
Copy CRC 7932E7A7
Track not present in AccurateRip database
Copy OK
Track 7
Filename C:\Rips\07 Alwilly.wav
Peak level 96.5 %
Extraction speed 3.1 X
Track quality 99.9 %
Test CRC 6B4AA8BA
Copy CRC 6B4AA8BA
Track not present in AccurateRip database
Copy OK
None of the tracks are present in the AccurateRip database
No errors occurred
End of status report
==== Log checksum 8A4F97ADB773000961D542AC4D32D37F12A113A3C9547AAD610ABEBA8F8F00F4 ====
 
Содержание индексной карты (.CUE)
REM GENRE Jazz
REM DATE 2013
REM DISCID 4F0CD407
REM COMMENT "ExactAudioCopy v1.0b3"
PERFORMER "Geir Lysne"
TITLE "New Circle"
FILE "01 Please Welcome !.wav" WAVE
TRACK 01 AUDIO
TITLE "Please Welcome !"
PERFORMER "Geir Lysne"
INDEX 01 00:00:00
TRACK 02 AUDIO
TITLE "Sakn"
PERFORMER "Geir Lysne"
INDEX 00 08:20:01
FILE "02 Sakn.wav" WAVE
INDEX 01 00:00:00
TRACK 03 AUDIO
TITLE "Kaa Is Back In Town"
PERFORMER "Geir Lysne"
INDEX 00 06:46:70
FILE "03 Kaa Is Back In Town.wav" WAVE
INDEX 01 00:00:00
TRACK 04 AUDIO
TITLE "A Million Stars"
PERFORMER "Geir Lysne"
INDEX 00 08:05:09
FILE "04 A Million Stars.wav" WAVE
INDEX 01 00:00:00
FILE "05 22.wav" WAVE
TRACK 05 AUDIO
TITLE "22"
PERFORMER "Geir Lysne"
INDEX 01 00:00:00
TRACK 06 AUDIO
TITLE "Amana Na Nunga"
PERFORMER "Geir Lysne"
INDEX 00 05:15:12
FILE "06 Amana Na Nunga.wav" WAVE
INDEX 01 00:00:00
FILE "07 Alwilly.wav" WAVE
TRACK 07 AUDIO
TITLE "Alwilly "
PERFORMER "Geir Lysne"
INDEX 01 00:00:00
 
Об альбоме
Geir Lysne is famous for acoustic big-band composition, but with New Circle the Norwegian original revisits past triumphs with a different lineup, this computer-enhanced sextet, although guitarist Nguyên Lê and vocalist Huong Tranh from Vietnam figure on a long guest list. Weaving brass and high-reeds textures reminiscent of Gil Evans or Mike Gibbs often surf on intense contemporary-urban percussion, and Lysne wraps African and worldbeat grooves around jazz phrasing and traditional songs with a flair that recalls the late Joe Zawinul. The fastmoving Please Welcome! fizzes with lashing backbeats and the riffing horn-section mimicry of gifted programmer of Reidar Skår. African percussion, folk jigs and 1970s Miles Davis merge on the composer's bow to the Jungle Book python, Kaa, and Tranh's haunting tone-bends drift in and out of Lê's glistening chords on A Million Stars. The slowly anthemic 22 (a reflection on Norway's Utoya massacre) represents Lysne at his most patiently eloquent, and if New Circle occasionally feels like a world tour that the computer resources have probably tempted him into, Lysne is nevertheless a composer of real clout, and makes fresh use of them. (John Fordham, The Guardian)
 
Состав
Geir Lysne - saxophones, flutes, jews harp, voice, keys, ballaphone, kalimba, programming, perc.
Reidar Skår - keys, programming
Eckhard Baur - trumpet, flugelhorn, voice
Gjermund Silset - bass
Olav Torget - electric guitars, acoustic guitar
Knut Aalefjær - drums, percussion
guests:
Nguyên Lê - electric guitar (04)
Huong Thanh - vocals (04)
Helge Sunde - trombone (01, 04 & 06)
Peter Baden - percussion, electronics (01 & 04)
Helge Norbakken - percussion (02 & 07)
Solo Cissoko - vocals, kora (07)
Audun Erlien - bass (03)
Renate Alsing - marimba (07)
Я знаю, что желтый видно плохо, но ничего существенного там все равно не сказано...
13:47
332
Нет комментариев. Ваш будет первым!