Поиск

(World Fusion, Post-Bop, Contemporary Jazz) [CD] Danilo Perez (feat. John Patitucci, Brian Blade, Ben Street, Adam Cruz a.o.) - Panama 500 - 2014, FLAC (tracks+.cue), lossless

(World Fusion, Post-Bop, Contemporary Jazz) [CD] Danilo Perez (feat. John Patitucci, Brian Blade, Ben Street, Adam Cruz a.o.) - Panama 500 - 2014, FLAC (tracks+.cue), lossless
Треклист:
Danilo Pérez
Panama 500
Жанр: World Fusion, Post-Bop, Contemporary Jazz
Страна-производитель диска: USA
Год издания: 2014
Издатель (лейбл): Mack Avenue Records
Номер по каталогу: MAC1075
Аудиокодек: FLAC (*.flac)
Тип рипа: tracks+.cue
Битрейт аудио: lossless
Продолжительность: 51:55
Источник (релизер): many thanks tdelyon
Наличие сканов в содержимом раздачи: да

Треклист:
01. Rediscovery of the South Sea
02. Panama 500
03. Reflections on the South Sea
04. Abita Yala (America)
05. Gratitude
06. The Canal Suite: Land of Hope
07. The Canal Suite: Premonition in Rhythm
08. The Canal Suite: Melting Pot (Chocolito)
09. The Expedition
10. Narration to Reflections on the South Sea
11. Panama Viejo
12. Celebration of Our Land
 
Лог создания рипа
Exact Audio Copy V1.0 beta 3 from 29. August 2011
EAC extraction logfile from 6. March 2014, 14:41
Danilo Pérez / Panama 500
Used drive : PHILIPS SPD3400CC Adapter: 3 ID: 0
Read mode : Secure
Utilize accurate stream : Yes
Defeat audio cache : Yes
Make use of C2 pointers : No
Read offset correction : 6
Overread into Lead-In and Lead-Out : No
Fill up missing offset samples with silence : Yes
Delete leading and trailing silent blocks : No
Null samples used in CRC calculations : Yes
Used interface : Installed external ASPI interface
Gap handling : Appended to previous track
Used output format : User Defined Encoder
Selected bitrate : 1024 kBit/s
Quality : High
Add ID3 tag : No
Command line compressor : C:\Program Files (x86)\Exact Audio Copy\FLAC\FLAC.EXE
Additional command line options : -8 -V -T "ARTIST=%artist%" -T "TITLE=%title%" -T "ALBUM=%albumtitle%" -T "DATE=%year%" -T "TRACKNUMBER=%tracknr%" -T "TOTALTRACKS=%numtracks%" -T "GENRE=%genre%" -T "ALBUM ARTIST=%albumartist%" -T "ALBUMARTIST=%albumartist%" -T "COMMENT=EAC V1.0 beta 3, Secure Mode, Test & Copy, AccurateRip, FLAC -8" %source%
TOC of the extracted CD
Track | Start | Length | Start sector | End sector
---------------------------------------------------------
1 | 0:00.00 | 8:38.55 | 0 | 38904
2 | 8:38.55 | 4:12.47 | 38905 | 57851
3 | 12:51.27 | 5:17.02 | 57852 | 81628
4 | 18:08.29 | 8:29.74 | 81629 | 119877
5 | 26:38.28 | 4:30.69 | 119878 | 140196
6 | 31:09.22 | 3:08.48 | 140197 | 154344
7 | 34:17.70 | 1:49.57 | 154345 | 162576
8 | 36:07.52 | 4:23.25 | 162577 | 182326
9 | 40:31.02 | 4:10.40 | 182327 | 201116
10 | 44:41.42 | 0:16.46 | 201117 | 202362
11 | 44:58.13 | 6:12.16 | 202363 | 230278
12 | 51:10.29 | 0:47.01 | 230279 | 233804
Track 1
Filename C:\Rips\01 Rediscovery Of The South Sea.wav
Pre-gap length 0:00:02.00
Peak level 98.4 %
Extraction speed 2.1 X
Track quality 100.0 %
Test CRC ADEE057D
Copy CRC ADEE057D
Accurately ripped (confidence 1) [5FD92978] (AR v2)
Copy OK
Track 2
Filename C:\Rips\02 Panama 500.wav
Peak level 98.9 %
Extraction speed 2.0 X
Track quality 99.9 %
Test CRC 16C56AB6
Copy CRC 16C56AB6
Accurately ripped (confidence 1) [AE06FE1B] (AR v2)
Copy OK
Track 3
Filename C:\Rips\03 Reflections on the South Sea.wav
Pre-gap length 0:00:00.13
Peak level 98.4 %
Extraction speed 2.2 X
Track quality 99.9 %
Test CRC 7DD2AAB6
Copy CRC 7DD2AAB6
Accurately ripped (confidence 1) [00D023A8] (AR v2)
Copy OK
Track 4
Filename C:\Rips\04 Abia Yala (America).wav
Peak level 98.2 %
Extraction speed 2.9 X
Track quality 100.0 %
Test CRC C3CD7BA1
Copy CRC C3CD7BA1
Accurately ripped (confidence 1) [519BFCCB] (AR v2)
Copy OK
Track 5
Filename C:\Rips\05 Gratitude.wav
Peak level 97.5 %
Extraction speed 2.1 X
Track quality 99.9 %
Test CRC A19115F8
Copy CRC A19115F8
Accurately ripped (confidence 1) [FCCCEE3A] (AR v2)
Copy OK
Track 6
Filename C:\Rips\06 The Canal Suite- Land of Hope.wav
Pre-gap length 0:00:01.29
Peak level 59.9 %
Extraction speed 3.0 X
Track quality 100.0 %
Test CRC 26FE84D8
Copy CRC 26FE84D8
Accurately ripped (confidence 1) [540F2201] (AR v2)
Copy OK
Track 7
Filename C:\Rips\07 The Canal Suite- Premonition in Rhythm.wav
Peak level 97.5 %
Extraction speed 2.8 X
Track quality 100.0 %
Test CRC D824E7F6
Copy CRC D824E7F6
Accurately ripped (confidence 1) [36109BE9] (AR v2)
Copy OK
Track 8
Filename C:\Rips\08 The Canal Suite- Melting Pot (Chocolito).wav
Peak level 97.9 %
Extraction speed 3.3 X
Track quality 100.0 %
Test CRC BA643AA3
Copy CRC BA643AA3
Accurately ripped (confidence 1) [CF34A819] (AR v2)
Copy OK
Track 9
Filename C:\Rips\09 The Expedition.wav
Pre-gap length 0:00:00.53
Peak level 98.1 %
Extraction speed 3.4 X
Track quality 100.0 %
Test CRC 9FB310ED
Copy CRC 9FB310ED
Accurately ripped (confidence 1) [05FC157C] (AR v2)
Copy OK
Track 10
Filename C:\Rips\10 Narration to Reflections on the South Sea.wav
Peak level 61.3 %
Extraction speed 0.4 X
Track quality 99.3 %
Test CRC AA3FE630
Copy CRC AA3FE630
Accurately ripped (confidence 1) [EF2E5870] (AR v2)
Copy OK
Track 11
Filename C:\Rips\11 Panama Viejo.wav
Peak level 97.4 %
Extraction speed 3.5 X
Track quality 100.0 %
Test CRC AD2048B2
Copy CRC AD2048B2
Accurately ripped (confidence 1) [0CF06CDB] (AR v2)
Copy OK
Track 12
Filename C:\Rips\12 Celebration of Our Land.wav
Peak level 97.2 %
Extraction speed 2.3 X
Track quality 100.0 %
Test CRC 70A189F2
Copy CRC 70A189F2
Accurately ripped (confidence 1) [38B2D0A0] (AR v2)
Copy OK
All tracks accurately ripped
No errors occurred
End of status report
==== Log checksum F131BCD33043D47878DF09640286E7D5F267834C43377B8411441098B3EAE5FA ====
 
Содержание индексной карты (.CUE)
REM GENRE Jazz
REM DATE 2014
REM DISCID 920C2D0C
REM COMMENT "ExactAudioCopy v1.0b3"
PERFORMER "Danilo Perez"
TITLE "Panama 500"
FILE "01 Rediscovery Of The South Sea.wav" WAVE
TRACK 01 AUDIO
TITLE "Rediscovery Of The South Sea"
PERFORMER "Danilo Perez"
INDEX 01 00:00:00
FILE "02 Panama 500.wav" WAVE
TRACK 02 AUDIO
TITLE "Panama 500"
PERFORMER "Danilo Perez"
INDEX 01 00:00:00
TRACK 03 AUDIO
TITLE "Reflections on the South Sea"
PERFORMER "Danilo Perez"
INDEX 00 04:12:34
FILE "03 Reflections on the South Sea.wav" WAVE
INDEX 01 00:00:00
FILE "04 Abia Yala (America).wav" WAVE
TRACK 04 AUDIO
TITLE "Abia Yala (America)"
PERFORMER "Danilo Perez"
INDEX 01 00:00:00
FILE "05 Gratitude.wav" WAVE
TRACK 05 AUDIO
TITLE "Gratitude"
PERFORMER "Danilo Perez"
INDEX 01 00:00:00
TRACK 06 AUDIO
TITLE "The Canal Suite: Land of Hope"
PERFORMER "Danilo Perez"
INDEX 00 04:29:40
FILE "06 The Canal Suite- Land of Hope.wav" WAVE
INDEX 01 00:00:00
FILE "07 The Canal Suite- Premonition in Rhythm.wav" WAVE
TRACK 07 AUDIO
TITLE "The Canal Suite: Premonition in Rhythm"
PERFORMER "Danilo Perez"
INDEX 01 00:00:00
FILE "08 The Canal Suite- Melting Pot (Chocolito).wav" WAVE
TRACK 08 AUDIO
TITLE "The Canal Suite: Melting Pot (Chocolito)"
PERFORMER "Danilo Perez"
INDEX 01 00:00:00
TRACK 09 AUDIO
TITLE "The Expedition"
PERFORMER "Danilo Perez"
INDEX 00 04:22:47
FILE "09 The Expedition.wav" WAVE
INDEX 01 00:00:00
FILE "10 Narration to Reflections on the South Sea.wav" WAVE
TRACK 10 AUDIO
TITLE "Narration to Reflections on the South Sea"
PERFORMER "Danilo Perez"
INDEX 01 00:00:00
FILE "11 Panama Viejo.wav" WAVE
TRACK 11 AUDIO
TITLE "Panama Viejo"
PERFORMER "Danilo Perez"
INDEX 01 00:00:00
FILE "12 Celebration of Our Land.wav" WAVE
TRACK 12 AUDIO
TITLE "Celebration of Our Land"
PERFORMER "Danilo Perez"
INDEX 01 00:00:00
 
Об альбоме
Danilo Perez is one of our finest contemporary jazz pianists and educators. Most recently, he has recorded and toured extensively with the ground-breaking Wayne Shorter Quartet. Residing in the Boston area, Perez maintains close ties with his native Panama and has initiated jazz education and festival programs there. In this album, devoted to his cultural origins, he becomes the creator of a multi-dimensional musical suite in celebration of the 500th anniversary of Spanish explorer Balboa crossing the Isthmus of Panama.
Perez combines Panamanian, European, Latin-Hispanic, and Native Central American styles into a beautifully coherent musical feast, using two iconic jazz trios, strings, percussion, and native instruments, chants, and narratives to convey images and stories of Panamanian mythology, folklore, and personal memory. The result is musical magic and wonder, evocative of inner and outer worlds. In this respect, it becomes part of the repertoire of impressionist tone poems, such as Debussy's La Mer, or, closer to home, Villa Lobos' Bachianas Brasileiras. While the album has fifteen tracks, each consisting of its own musical development, it emerges as a unified composition that is best heard in its entirety.
"Rediscovery of the South Sea" is a prelude that takes the listener to the place of Balboa's first encounters. A laconic mixture of sounds is followed by a dance-like sequence with rhythm supplied by plucked strings, sticks, claves, and hand drums evocative of warm forests and beaches. Roman Diaz enters briefly as a storyteller. The first trio, consisting of Perez, bassist Ben Street, and drummer Adam Cruz frames the music. "Rediscovery" is suggestive of sequential images like Mussorgsky's Pictures at an Exhibition, in this case a walk on an island paradise. Violins reinforce the imagery with colorful and impressionistic suggestibility, with Perez playing reflective chord clusters. The violins return with a rumba-like dance sequence aided by percussion, and Diaz recapitulates his narrative.
"Panama 500" is sustained by the continous rhythm of La Denesa, a traditional Panamanian folkloric dance. The second trio of John Pattitucci, Brian Blade and Perez forms the rhythm section. The atmosphere is made festive by violins and sensuous rhythmic pulses. Here, Perez's piano is vaguely reminiscent of Erik Satie's Gymnopedies with their limbic lightness. Throughout the album, Perez negotiates seamlessly and imaginatively between European classical and varied Latin American influences.
"Reflections On The South Sea" (i.e., the Pacific Ocean that faces south of Panama as the Isthmus twists between two continents) opens reflectively with an elegant contrapuntal exchange between the piano and cello. The rhythm develops a tango-like tension and accentuation, as if influenced by Astor Piazzola. Throughout the album, there are allusions to Brazilian, Argentinian, and other South American and Carribean musical idioms. Perez establishes a fascinating triangle between trio jazz, European classical variations, and a mix of Latin-Hispanic influences. All the while, native Panamanian and deep historical African gestures hold the music in a secure place, like the stilts on an elevated beach house. When you go to this place of Perez' invention, you'll want to stay. (Victor L. Schermer, AllAboutJazz)
 
Состав
Danilo Pérez - piano, cowbell
John Patitucci - electric bass (2); acoustic bass (3, 4, 9)
Ben Street - bass (1, 5, 8, 11)
Brian Blade - drums (2 – 4, 9)
Adam Cruz - drums (1, 5, 8, 11)
Alex Hargreaves - violin (1, 2, 8)
Rogério Boccato - percussion (2, 3, 8)
Milagros Blades - ripcador (1, 7), caja, pujador (7)
Sachi Patitucci - cello (3)
Román Díaz - percussion, chant (1)
Ricaurte Villareal - caja, güiro (1)
José Angel Colman - vocals in guna language (3)
Eulogio Olaideginia Benítez - gala bissu (4), gala ildi (12)
José Antonio Hayans - Gammuburwi (12)
13:47
647
Нет комментариев. Ваш будет первым!