Поиск

(Caribbean Jazz, Martinique) [CD] Mario Canonge - Retour aux Sources - 1991, FLAC (image+.cue), lossless

(Caribbean Jazz, Martinique) [CD] Mario Canonge - Retour aux Sources - 1991, FLAC (image+.cue), lossless
Треклист:
Mario Canonge - Retour aux Sources
Жанр: Caribbean Jazz, Martinique
Носитель: CD
Страна-производитель диска: Франция
Год издания: 1991
Издатель (лейбл): S.N.A.
Номер по каталогу: 150960
Аудиокодек: FLAC (*.flac)
Тип рипа: image+.cue
Битрейт аудио: lossless
Продолжительность: 38:53
Источник (релизер): dreadbull (hqshare)
Наличие сканов в содержимом раздачи: да
Треклист:
01. Lese Pale /Canonge/ 4:16
02. Pei Mwen Jôdi /Canonge/ 4:59
03. Balata /Canonge/ 5:28
04. Ernest et Firmin /T. Fanfant/ 4:56
05. Bel Kado /Canonge/ 3:54
06. Lakensiel Souvenir /Canonge, T. Chasseur/ 3:35
07. Studio 14 /Canonge/ 4:58
08. West Indies Rhapsody /Canonge/ 1:32
09. Trio Mako /Canonge/ 4:22.
 
Лог создания рипа
Exact Audio Copy V1.0 beta 3 from 29. August 2011
EAC extraction logfile from 21. February 2014, 19:07
Mario Canonge et le groupe Kann' / Retour aux sources
Used drive : ASUS DRW-22B2L Adapter: 0 ID: 0
Read mode : Secure
Utilize accurate stream : Yes
Defeat audio cache : Yes
Make use of C2 pointers : No
Read offset correction : 6
Overread into Lead-In and Lead-Out : No
Fill up missing offset samples with silence : Yes
Delete leading and trailing silent blocks : No
Null samples used in CRC calculations : Yes
Used interface : Native Win32 interface for Win NT & 2000
Used output format : User Defined Encoder
Selected bitrate : 128 kBit/s
Quality : High
Add ID3 tag : Yes
Command line compressor : C:\Program Files (x86)\FLAC\flac.exe
Additional command line options : -8 -V -T "ARTIST=%artist%" -T "TITLE=%title%" -T "ALBUM=%albumtitle%" -T "DATE=%year%" -T "TRACKNUMBER=%tracknr%" -T "GENRE=%genre%" -T "PERFORMER=%albuminterpret%" -T "COMPOSER=%composer%" %haslyrics%--tag-from-file=LYRICS="%lyricsfile%"%haslyrics% -T "ALBUMARTIST=%albumartist%" -T "DISCNUMBER=%cdnumber%" -T "TOTALDISCS=%totalcds%" -T "TOTALTRACKS=%numtracks%" -T "COMMENT=%comment%" %source% -o %dest%
TOC of the extracted CD
Track | Start | Length | Start sector | End sector
---------------------------------------------------------
1 | 0:00.32 | 4:24.25 | 32 | 19856
2 | 4:24.57 | 5:07.33 | 19857 | 42914
3 | 9:32.15 | 5:34.50 | 42915 | 68014
4 | 15:06.65 | 5:02.05 | 68015 | 90669
5 | 20:08.70 | 3:57.65 | 90670 | 108509
6 | 24:06.60 | 3:39.35 | 108510 | 124969
7 | 27:46.20 | 5:04.02 | 124970 | 147771
8 | 32:50.22 | 1:37.65 | 147772 | 155111
9 | 34:28.12 | 4:25.00 | 155112 | 174986
Range status and errors
Selected range
Filename H:\Donkey Files\Mario Canonge - Retour aux Sources (1991, S.N.A.) [eac-flac-scans] byDrBull\Mario Canonge - Retour aux sources.wav
Peak level 100.0 %
Extraction speed 3.8 X
Range quality 100.0 %
Test CRC 69AA0D4E
Copy CRC 69AA0D4E
Copy OK
No errors occurred
AccurateRip summary
Track 1 accurately ripped (confidence 1) [937323CC] (AR v1)
Track 2 accurately ripped (confidence 1) [FCCFC9B4] (AR v1)
Track 3 accurately ripped (confidence 1) [FA1FD2E7] (AR v1)
Track 4 accurately ripped (confidence 1) [CCCE66E1] (AR v1)
Track 5 accurately ripped (confidence 2) [8362B0B9] (AR v1)
Track 6 accurately ripped (confidence 1) [C6AB9D6B] (AR v1)
Track 7 accurately ripped (confidence 1) [9C6444FD] (AR v1)
Track 8 accurately ripped (confidence 1) [B7CF25D6] (AR v1)
Track 9 accurately ripped (confidence 1) [B9831D8D] (AR v1)
All tracks accurately ripped
End of status report
 
Содержание индексной карты (.CUE)
REM GENRE Jazz
REM DATE 1991
REM DISCID 77091D09
REM COMMENT "ExactAudioCopy v1.0b3"
PERFORMER "Mario Canonge et le groupe Kann'"
TITLE "Retour aux sources"
FILE "Mario Canonge - Retour aux sources.wav" WAVE
TRACK 01 AUDIO
TITLE "Lese pale"
PERFORMER "Mario Canonge et le groupe Kann'"
INDEX 00 00:00:00
INDEX 01 00:00:32
TRACK 02 AUDIO
TITLE "Pei mwen jodi"
PERFORMER "Mario Canonge et le groupe Kann'"
INDEX 00 04:22:30
INDEX 01 04:24:57
TRACK 03 AUDIO
TITLE "Balata"
PERFORMER "Mario Canonge et le groupe Kann'"
INDEX 00 09:29:32
INDEX 01 09:32:15
TRACK 04 AUDIO
TITLE "Ernest et Firmin"
PERFORMER "Mario Canonge et le groupe Kann'"
INDEX 00 15:04:22
INDEX 01 15:06:65
TRACK 05 AUDIO
TITLE "Bel kado"
PERFORMER "Mario Canonge et le groupe Kann'"
INDEX 00 20:06:67
INDEX 01 20:08:70
TRACK 06 AUDIO
TITLE "Lakensiel souvenir"
PERFORMER "Mario Canonge et le groupe Kann'"
INDEX 00 24:05:00
INDEX 01 24:06:60
TRACK 07 AUDIO
TITLE "Studio 14"
PERFORMER "Mario Canonge et le groupe Kann'"
INDEX 00 27:44:35
INDEX 01 27:46:20
TRACK 08 AUDIO
TITLE "West Indies rhapsody"
PERFORMER "Mario Canonge et le groupe Kann'"
INDEX 00 32:47:57
INDEX 01 32:50:22
TRACK 09 AUDIO
TITLE "Tro mako"
PERFORMER "Mario Canonge et le groupe Kann'"
INDEX 00 34:25:52
INDEX 01 34:28:12
 
Отчет CUETools
[CUETools log; Date: 10.03.2014 22:25:32; Version: 2.1.4]
Pregap length 00:00:32.
[CTDB TOCID: lHFH_nUyU_IoGmpIsdcXLOOs6tA-] disk not present in database.
[AccurateRip ID: 000e3be8-0066f69d-77091d09] found.
Track [ CRC | V2 ] Status
01 [937323cc|014d32fd] (1+1/3) Accurately ripped
02 [fccfc9b4|635238bd] (1+1/2) Accurately ripped
03 [fa1fd2e7|a1b2ce61] (1+1/2) Accurately ripped
04 [ccce66e1|9c3a99d2] (1+1/2) Accurately ripped
05 [8362b0b9|2cf39bb2] (2+0/2) Accurately ripped
06 [c6ab9d6b|61341bdc] (1+1/2) Accurately ripped
07 [9c6444fd|e400b123] (1+1/2) Accurately ripped
08 [b7cf25d6|ba4619ba] (1+1/2) Accurately ripped
09 [b9831d8d|3499945e] (1+1/2) Accurately ripped
Track Peak [ CRC32 ] [W/O NULL] [ LOG ]
-- 100,0 [69AA0D4E] [18240819] CRC32
01 100,0 [AFF68DBB] [3258A4C1]
02 100,0 [0A2B0BCE] [643782CC]
03 100,0 [6E88C822] [F870AE0D]
04 100,0 [42015B02] [8E84667B]
05 100,0 [BAE263F5] [8F3379EE]
06 100,0 [87484056] [68FE3671]
07 100,0 [2211033E] [C975E5AF]
08 99,6 [3022FBE9] [D49352AB]
09 100,0 [4F5585D6] [F4C12C24]
 
Об альбоме (сборнике)
Early pressing of the first solo effort by France-based jazz pianist Mario Canonge, a native of the isle of Martinique (French Antilles). A smooth but infectious mix of jazz with pianist’s native song traditions (gwo ka, biguine, zouk) and pan-Latin rhythms like bossa nova or salsa, with some consistent playing from the leader and his Guadeloupe-born rhythm section Fanfant brothers (Jean-Philippe on drums and Thierry on bass).
Check the link above (Info) for detailed information in French about Mario Canonge.
~DrBull
 
Состав
Le Groupe Kann':
Mario Canonge - piano, choir, arranger;
Thierry Fanfant - bass, choir;
Jean-Filippe Fanfant - drums, choir;
Bago - percussion, choir.
Guests:
Ralph Thamar - lead vocals (#1,5), choir;
Serge Ponsar - lead vocals (#2), choir;
Tony Chasseur - lead vocals (#6), choir;
Jean-Filippe Marthely - choir;
Jean-Paul Pognon - choir;
Tatiana Miath - choir;
Tania St Val - choir;
Maria Céline Crone - choir;
Philippe Slominsky - trumpet;
Allen Hoist - tenor & baritone sax;
Pierre Olivier Govin - alto sax;
Jean-Louis Damant - trombone;
Silviano Michelino - Brazilian tambourin (#2).
Rec.: Oct 1991, Studio Gimmick, Yerres, France.
14:46
276
Нет комментариев. Ваш будет первым!