Поиск

(Acid Jazz, Rock, Funk, Soul) [CD] VA - Hammond Street - 2001, FLAC (image+.cue), lossless

(Acid Jazz, Rock, Funk, Soul) [CD] VA - Hammond Street - 2001, FLAC (image+.cue), lossless
Треклист:
Hammond Street
Жанр: Acid Jazz, Rock, Funk, Soul
Носитель: CD
Страна-производитель диска (релиза): UK
Год издания: 2001
Издатель (лейбл): Acid Jazz Records
Номер по каталогу: AJXCD137
Аудиокодек: FLAC (*.flac)
Тип рипа: image+.cue
Битрейт аудио: lossless
Продолжительность: 00:55:53
Источник (релизер): собственный рип
Наличие сканов в содержимом раздачи: да
Треклист:
01. The Past Present Organisation - Itchy Feet
02. Trashmonkeys - Clubtown
03. Sugarman Three - Soul Barrio Part 2
04. James Taylor Quartet - Car Chase
05. The Clique - Wormin'
06. Sharkskin - Hothead
07. Reuben Wilson - Sugar
08. The Forster-Hammond Trio - Texas Twister
09. The Nick Rossi Set - Monkeyshines
10. Phaze - Indian Rope Man
11. Pleasure Beach - Smells Like Teen Spirit
12. Jimmy McGriff - Ain't It Funky Now
13. The Spiderman - Theme From Poindexter
14. Martini - Buttermilk
 
Лог создания рипа
Exact Audio Copy V1.1 from 23. June 2015
Отчёт EAC об извлечении, выполненном 1. февраля 2017, 19:23
Various / Hammond Street
Дисковод: ASUS DRW-24B3ST Adapter: 0 ID: 0
Режим чтения : Достоверность
Использование точного потока : Да
Отключение кэша аудио : Да
Использование указателей C2 : Нет
Коррекция смещения при чтении : 6
Способность читать области Lead-in и Lead-out : Нет
Заполнение пропущенных сэмплов тишиной : Да
Удаление блоков с тишиной в начале и конце : Нет
При вычислениях CRC использовались нулевые сэмплы : Да
Интерфейс : Установленный внешний ASPI-интерфейс
Выходной формат : Пользовательский кодировщик
Выбранный битрейт : 1024 kBit/s
Качество : Высокий
Добавление ID3-тега : Нет
Утилита сжатия : C:\Program Files (x86)\Exact Audio Copy\Flac\flac.exe
Дополнительные параметры : -V -8 -T "Date=%year%" -T "Genre=%genre%" %source%
TOC извлечённого CD
Трек | Старт | Длительность | Начальный сектор | Конечный сектор
---------------------------------------------------------------------
1 | 0:00.00 | 4:06.63 | 0 | 18512
2 | 4:06.63 | 3:15.23 | 18513 | 33160
3 | 7:22.11 | 2:56.35 | 33161 | 46395
4 | 10:18.46 | 2:46.71 | 46396 | 58916
5 | 13:05.42 | 2:40.01 | 58917 | 70917
6 | 15:45.43 | 3:05.21 | 70918 | 84813
7 | 18:50.64 | 6:12.42 | 84814 | 112755
8 | 25:03.31 | 5:32.28 | 112756 | 137683
9 | 30:35.59 | 4:33.49 | 137684 | 158207
10 | 35:09.33 | 4:12.52 | 158208 | 177159
11 | 39:22.10 | 4:03.26 | 177160 | 195410
12 | 43:25.36 | 3:42.64 | 195411 | 212124
13 | 47:08.25 | 5:11.69 | 212125 | 235518
14 | 52:20.19 | 3:33.30 | 235519 | 251523
Характеристики диапазона извлечения и сообщения об ошибках
Выбранный диапазон
Имя файла C:\Torrents - my\Various Artists - 2001 - Hammond Street\Various - Hammond Street.wav
Пиковый уровень 100.0 %
Скорость извлечения 8.6 X
Качество диапазона 100.0 %
CRC теста 2A7AA405
CRC копии 2A7AA405
Копирование... OK
Ошибок не произошло
AccurateRip: сводка
Трек 1 : извлечено точно (доверие 2) [970F11D4] (AR v1)
Трек 2 : извлечено точно (доверие 2) [397E8A90] (AR v1)
Трек 3 : извлечено точно (доверие 2) [AB75DB06] (AR v1)
Трек 4 : извлечено точно (доверие 2) [D9202FF2] (AR v1)
Трек 5 : извлечено точно (доверие 2) [77AAE298] (AR v1)
Трек 6 : извлечено точно (доверие 2) [5B41E7C3] (AR v1)
Трек 7 : извлечено точно (доверие 2) [B00660DF] (AR v1)
Трек 8 : извлечено точно (доверие 2) [5E67AB9C] (AR v1)
Трек 9 : извлечено точно (доверие 2) [C49CFA37] (AR v1)
Трек 10 : извлечено точно (доверие 2) [FEBDEFC2] (AR v1)
Трек 11 : извлечено точно (доверие 2) [1F32094A] (AR v1)
Трек 12 : извлечено точно (доверие 2) [53451B7A] (AR v1)
Трек 13 : извлечено точно (доверие 2) [8DBDDEFE] (AR v1)
Трек 14 : извлечено точно (доверие 2) [9175D747] (AR v1)
Все треки извлечены точно
Конец отчёта
==== Контрольная сумма отчёта 1452DCE8699E015A519269A5777E2DFA223DB6FD7FC00405CBDEA361D99C8DD4 ====
 
Об альбоме (сборнике)
Можно скачать ради одной нирвановской Smells Like Teen Spirit! Очень классно сделано!
Поклонникам классного стильного хаммонда!!!
Приватный:
Нет (DHT включён)
Размер:
413.23 Мб (433,304,695 байт) » файлов: 10
Участники:
0 раздают, 0 качают (0 участников всего)
Внешние участники:
2 раздают, 1 качают (3 участников всего) [ Обновить ]
Есть вопросы - пишите личное сообщение пользователю M0p94ok.
12:56
45
Нет комментариев. Ваш будет первым!