Поиск

(Acid Jazz, Rock, Funk, Soul, Blues) [CD] VA - Hammond Street 4 - A Fanky Selection of Organ Grooves - 2009, FLAC (image+.cue), lossless

(Acid Jazz, Rock, Funk, Soul, Blues) [CD] VA - Hammond Street 4 - A Fanky Selection of Organ Grooves - 2009, FLAC (image+.cue), lossless
Треклист:
Hammond Street 4 - A Fanky Selection of Organ Grooves
Жанр: Acid Jazz, Rock, Funk, Soul, Blues
Носитель: CD
Страна-производитель диска (релиза): UK
Год издания: 2009
Издатель (лейбл): Acid Jazz
Номер по каталогу: AJXCD217
Аудиокодек: FLAC (*.flac)
Тип рипа: image+.cue
Битрейт аудио: lossless
Продолжительность: 00:54:22
Источник (релизер): собственный рип
Наличие сканов в содержимом раздачи: да
Треклист:
1 –Trummer & Orgel - Under Cover
2 –The James Taylor Quartet - One Way Street
3 –Les Cappuccino - My Generation
4 –The Filthy Six - Knockout
5 –Lord Large - LBW
6 –Danger Mod - Theodalight 9
7 –Imaginary Visions - Imaginary Visions
8 –The Pat West Quartet - Jonny Blacks Blues
9 –Andy Lewis - Song For The Big Television
10 –Nigel Price Trio - Blues Riff
11 –Twisted Tongue - E.T. Boogie (B3 Boogie Mix)
12 –Illusion Of Groove - Ghost Trip
13 –Rory More At The Lowrey Organ - Crush
14 –The Moons - Moon Shake
15 –Smashing Time - London Leslie Swing
 
Лог создания рипа
Exact Audio Copy V1.1 from 23. June 2015
Отчёт EAC об извлечении, выполненном 30. января 2017, 18:38
Various Artists / Hammond Street 4
Дисковод: ASUS DRW-24B3ST Adapter: 0 ID: 0
Режим чтения : Достоверность
Использование точного потока : Да
Отключение кэша аудио : Да
Использование указателей C2 : Нет
Коррекция смещения при чтении : 6
Способность читать области Lead-in и Lead-out : Нет
Заполнение пропущенных сэмплов тишиной : Да
Удаление блоков с тишиной в начале и конце : Нет
При вычислениях CRC использовались нулевые сэмплы : Да
Интерфейс : Установленный внешний ASPI-интерфейс
Выходной формат : Пользовательский кодировщик
Выбранный битрейт : 1024 kBit/s
Качество : Высокий
Добавление ID3-тега : Нет
Утилита сжатия : C:\Program Files (x86)\Exact Audio Copy\FLAC\FLAC.EXE
Дополнительные параметры : -6 -V -T "ARTIST=%artist%" -T "TITLE=%title%" -T "ALBUM=%albumtitle%" -T "DATE=%year%" -T "TRACKNUMBER=%tracknr%" -T "GENRE=%genre%" -T "COMMENT=%comment%" -T "BAND=%albuminterpret%" -T "ALBUMARTIST=%albuminterpret%" -T "COMPOSER=%composer%" %haslyrics%--tag-from-file=LYRICS="%lyricsfile%"%haslyrics% -T "DISCNUMBER=%cdnumber%" -T "TOTALDISCS=%totalcds%" -T "TOTALTRACKS=%numtracks%" %hascover%--picture="%coverfile%"%hascover% %source% -o %dest%
TOC извлечённого CD
Трек | Старт | Длительность | Начальный сектор | Конечный сектор
---------------------------------------------------------------------
1 | 0:00.00 | 4:49.56 | 0 | 21730
2 | 4:49.56 | 2:20.70 | 21731 | 32300
3 | 7:10.51 | 4:10.33 | 32301 | 51083
4 | 11:21.09 | 7:38.66 | 51084 | 85499
5 | 19:00.00 | 2:15.52 | 85500 | 95676
6 | 21:15.52 | 2:56.01 | 95677 | 108877
7 | 24:11.53 | 3:04.09 | 108878 | 122686
8 | 27:15.62 | 5:40.11 | 122687 | 148197
9 | 32:55.73 | 2:40.53 | 148198 | 160250
10 | 35:36.51 | 4:57.73 | 160251 | 182598
11 | 40:34.49 | 3:49.10 | 182599 | 199783
12 | 44:23.59 | 3:07.67 | 199784 | 213875
13 | 47:31.51 | 2:24.24 | 213876 | 224699
14 | 49:56.00 | 1:55.37 | 224700 | 233361
15 | 51:51.37 | 2:30.73 | 233362 | 244684
Характеристики диапазона извлечения и сообщения об ошибках
Выбранный диапазон
Имя файла C:\Torrents - my\Various Artists - 2009 - Hammond Street 4\Various Artists - Hammond Street 4.wav
Пиковый уровень 100.0 %
Скорость извлечения 8.3 X
Качество диапазона 100.0 %
CRC теста 0CB602E3
CRC копии 0CB602E3
Копирование... OK
Ошибок не произошло
AccurateRip: сводка
Трек 1 отсутствует в базе данных
Трек 2 отсутствует в базе данных
Трек 3 отсутствует в базе данных
Трек 4 отсутствует в базе данных
Трек 5 отсутствует в базе данных
Трек 6 отсутствует в базе данных
Трек 7 отсутствует в базе данных
Трек 8 отсутствует в базе данных
Трек 9 отсутствует в базе данных
Трек 10 отсутствует в базе данных
Трек 11 отсутствует в базе данных
Трек 12 отсутствует в базе данных
Трек 13 отсутствует в базе данных
Трек 14 отсутствует в базе данных
Трек 15 отсутствует в базе данных
Ни одного трека нет в базе AccurateRip
Конец отчёта
==== Контрольная сумма отчёта 2B041F7F397457EA47DD29A8B8F06E1EDD714FC37C41C05F23119A109B64F833 ====
Поклонникам классного стильного хаммонда!!!
Приватный:
Нет (DHT включён)
Размер:
382.56 Мб (401,145,743 байт) » файлов: 11
Участники:
0 раздают, 0 качают (0 участников всего)
Внешние участники:
8 раздают, 2 качают (10 участников всего) [ Обновить ]
Есть вопросы - пишите личное сообщение пользователю M0p94ok.
12:54
41
Нет комментариев. Ваш будет первым!