Поиск

(Soul-Jazz, Fusion, Jazz-Funk, Modal) [CD] VA - Ready or Not: Deep Jazz Grooves from the CBC Radio Canada Archive 1967-1977 - 2005, FLAC (tracks+.cue), lossless

(Soul-Jazz, Fusion, Jazz-Funk, Modal) [CD] VA - Ready or Not: Deep Jazz Grooves from the CBC Radio Canada Archive 1967-1977 - 2005, FLAC (tracks+.cue), lossless
Треклист:
VA - Ready or Not: Deep Jazz Grooves from the CBC Radio Canada Archive 1967-1977
Жанр: Soul-Jazz, Fusion, Jazz-Funk, Modal
Носитель: CD
Страна-производитель диска (релиза): Канада
Год издания: 2005
Издатель (лейбл): Do Right! Music
Номер по каталогу: DR010 CD
Аудиокодек: FLAC (*.flac)
Тип рипа: tracks+.cue
Битрейт аудио: lossless
Продолжительность: 57:02
Источник (релизер): passtheheadphones
Наличие сканов в содержимом раздачи: нет
Треклист:
01. Intro (0:09)
02. Emile Normand Sextet - Senor Blues (3:38)
03. Kathryn Moses - Ready or Not (3:38)
04. Nick Ayoub - Saphir (5:32)
05. Electric Ninja Group - Star of India (4:43)
06. Maynard Ferguson Sextet - My Sister (5:15)
07. Billy Robinson - The Family (7:25)
08. Pierre Nadeau Trio - Consuelo (4:22)
09. Al Michalek Quartet - Voices (5:29)
10. Fred Stone - Lawrence of Arabia (8:33)
11. Pierre Leduc - Soya (8:18)
 
Лог создания рипа
X Lossless Decoder version 20151214 (149.1)
XLD extraction logfile from 2016-09-16 23:47:08 -0400
Various Artists / Ready or Not: Deep Jazz Grooves From the CBC Radio Canada Archive 1967-1977
Used drive : MATSHITA DVD-R UJ-8A8 (revision HA13)
Media type : Pressed CD
Ripper mode : XLD Secure Ripper
Disable audio cache : OK for the drive with a cache less than 1375KiB
Make use of C2 pointers : NO
Read offset correction : 102
Max retry count : 100
Gap status : Analyzed, Appended (except HTOA)
TOC of the extracted CD
Track | Start | Length | Start sector | End sector
---------------------------------------------------------
1 | 00:00:00 | 00:09:29 | 0 | 703
2 | 00:09:29 | 03:38:08 | 704 | 17061
3 | 03:47:37 | 03:37:41 | 17062 | 33377
4 | 07:25:03 | 05:32:18 | 33378 | 58295
5 | 12:57:21 | 04:42:48 | 58296 | 79493
6 | 17:39:69 | 05:15:03 | 79494 | 103121
7 | 22:54:72 | 07:25:32 | 103122 | 136528
8 | 30:20:29 | 04:22:20 | 136529 | 156198
9 | 34:42:49 | 05:29:08 | 156199 | 180881
10 | 40:11:57 | 08:32:54 | 180882 | 219335
11 | 48:44:36 | 08:18:30 | 219336 | 256715
AccurateRip Summary (DiscID: 0012f276-00af1e38-880d5e0b)
Track 01 : OK (v2, confidence 6/6)
Track 02 : OK (v2, confidence 6/6)
Track 03 : OK (v2, confidence 6/6)
Track 04 : OK (v2, confidence 6/6)
Track 05 : OK (v2, confidence 6/6)
Track 06 : OK (v2, confidence 6/6)
Track 07 : OK (v2, confidence 6/6)
Track 08 : OK (v2, confidence 6/6)
Track 09 : OK (v2, confidence 6/6)
Track 10 : OK (v2, confidence 6/6)
Track 11 : OK (v2, confidence 6/6)
->All tracks accurately ripped.
All Tracks
Album gain : -5.73 dB
Peak : 0.988647
Statistics
Read error : 0
Jitter error (maybe fixed) : 0
Retry sector count : 0
Damaged sector count : 0
Track 01
Filename : /Users/baconfat/Desktop/XLD rips/Various Artists - Ready or Notпјљ Deep Jazz Grooves From the CBC Radio Canada Archive 1967-1977 (2005) [FLAC]/01 Intro.flac
Pre-gap length : 00:02:00
Track gain : -1.56 dB
Peak : 0.555878
CRC32 hash (test run) : D69F9DE5
CRC32 hash : D69F9DE5
CRC32 hash (skip zero) : 710DFD15
AccurateRip v1 signature : A0A37522
AccurateRip v2 signature : 7BCB35CE
->Accurately ripped (v2, confidence 6/6)
Statistics
Read error : 0
Jitter error (maybe fixed) : 0
Retry sector count : 0
Damaged sector count : 0
Track 02
Filename : /Users/baconfat/Desktop/XLD rips/Various Artists - Ready or Notпјљ Deep Jazz Grooves From the CBC Radio Canada Archive 1967-1977 (2005) [FLAC]/02 Senor Blues.flac
Track gain : -5.11 dB
Peak : 0.988647
CRC32 hash (test run) : C3A0D4BA
CRC32 hash : C3A0D4BA
CRC32 hash (skip zero) : 2C9CA851
AccurateRip v1 signature : 3A58C8AE
AccurateRip v2 signature : C6766058
->Accurately ripped (v2, confidence 6/6)
Statistics
Read error : 0
Jitter error (maybe fixed) : 0
Retry sector count : 0
Damaged sector count : 0
Track 03
Filename : /Users/baconfat/Desktop/XLD rips/Various Artists - Ready or Notпјљ Deep Jazz Grooves From the CBC Radio Canada Archive 1967-1977 (2005) [FLAC]/03 Ready or Not.flac
Track gain : -6.09 dB
Peak : 0.988647
CRC32 hash (test run) : A1ECE07C
CRC32 hash : A1ECE07C
CRC32 hash (skip zero) : 6A5698E3
AccurateRip v1 signature : 6BAC59AC
AccurateRip v2 signature : 14C8F788
->Accurately ripped (v2, confidence 6/6)
Statistics
Read error : 0
Jitter error (maybe fixed) : 0
Retry sector count : 0
Damaged sector count : 0
Track 04
Filename : /Users/baconfat/Desktop/XLD rips/Various Artists - Ready or Notпјљ Deep Jazz Grooves From the CBC Radio Canada Archive 1967-1977 (2005) [FLAC]/04 Saphir.flac
Track gain : -4.90 dB
Peak : 0.988647
CRC32 hash (test run) : EF74A241
CRC32 hash : EF74A241
CRC32 hash (skip zero) : F0E2C051
AccurateRip v1 signature : B2682D39
AccurateRip v2 signature : 86ED7DE0
->Accurately ripped (v2, confidence 6/6)
Statistics
Read error : 0
Jitter error (maybe fixed) : 0
Retry sector count : 0
Damaged sector count : 0
Track 05
Filename : /Users/baconfat/Desktop/XLD rips/Various Artists - Ready or Notпјљ Deep Jazz Grooves From the CBC Radio Canada Archive 1967-1977 (2005) [FLAC]/05 Star of India.flac
Track gain : -5.95 dB
Peak : 0.988647
CRC32 hash (test run) : 6E5C462E
CRC32 hash : 6E5C462E
CRC32 hash (skip zero) : C76ACE0E
AccurateRip v1 signature : 840691EF
AccurateRip v2 signature : 80BC82D4
->Accurately ripped (v2, confidence 6/6)
Statistics
Read error : 0
Jitter error (maybe fixed) : 0
Retry sector count : 0
Damaged sector count : 0
Track 06
Filename : /Users/baconfat/Desktop/XLD rips/Various Artists - Ready or Notпјљ Deep Jazz Grooves From the CBC Radio Canada Archive 1967-1977 (2005) [FLAC]/06 My Sister.flac
Track gain : -6.64 dB
Peak : 0.909454
CRC32 hash (test run) : CDBC8D9F
CRC32 hash : CDBC8D9F
CRC32 hash (skip zero) : 4376D35E
AccurateRip v1 signature : 10DB0F35
AccurateRip v2 signature : 19044E43
->Accurately ripped (v2, confidence 6/6)
Statistics
Read error : 0
Jitter error (maybe fixed) : 0
Retry sector count : 0
Damaged sector count : 0
Track 07
Filename : /Users/baconfat/Desktop/XLD rips/Various Artists - Ready or Notпјљ Deep Jazz Grooves From the CBC Radio Canada Archive 1967-1977 (2005) [FLAC]/07 The Family.flac
Track gain : -6.68 dB
Peak : 0.988647
CRC32 hash (test run) : 3D516728
CRC32 hash : 3D516728
CRC32 hash (skip zero) : 2E87BD9E
AccurateRip v1 signature : 943B3432
AccurateRip v2 signature : 21B33ECF
->Accurately ripped (v2, confidence 6/6)
Statistics
Read error : 0
Jitter error (maybe fixed) : 0
Retry sector count : 0
Damaged sector count : 0
Track 08
Filename : /Users/baconfat/Desktop/XLD rips/Various Artists - Ready or Notпјљ Deep Jazz Grooves From the CBC Radio Canada Archive 1967-1977 (2005) [FLAC]/08 Consuelo.flac
Track gain : -4.42 dB
Peak : 0.988647
CRC32 hash (test run) : 3E3097E7
CRC32 hash : 3E3097E7
CRC32 hash (skip zero) : CBD145FF
AccurateRip v1 signature : EBAC9A14
AccurateRip v2 signature : 6012481E
->Accurately ripped (v2, confidence 6/6)
Statistics
Read error : 0
Jitter error (maybe fixed) : 0
Retry sector count : 0
Damaged sector count : 0
Track 09
Filename : /Users/baconfat/Desktop/XLD rips/Various Artists - Ready or Notпјљ Deep Jazz Grooves From the CBC Radio Canada Archive 1967-1977 (2005) [FLAC]/09 Voices.flac
Track gain : -6.35 dB
Peak : 0.988647
CRC32 hash (test run) : CA4504CE
CRC32 hash : CA4504CE
CRC32 hash (skip zero) : 7F75425A
AccurateRip v1 signature : D0AF6A96
AccurateRip v2 signature : 740F0F34
->Accurately ripped (v2, confidence 6/6)
Statistics
Read error : 0
Jitter error (maybe fixed) : 0
Retry sector count : 0
Damaged sector count : 0
Track 10
Filename : /Users/baconfat/Desktop/XLD rips/Various Artists - Ready or Notпјљ Deep Jazz Grooves From the CBC Radio Canada Archive 1967-1977 (2005) [FLAC]/10 Lawrence of Arabia.flac
Track gain : -4.63 dB
Peak : 0.988647
CRC32 hash (test run) : 4F273061
CRC32 hash : 4F273061
CRC32 hash (skip zero) : 2B7E3759
AccurateRip v1 signature : 962DA84D
AccurateRip v2 signature : 84CCBA4B
->Accurately ripped (v2, confidence 6/6)
Statistics
Read error : 0
Jitter error (maybe fixed) : 0
Retry sector count : 0
Damaged sector count : 0
Track 11
Filename : /Users/baconfat/Desktop/XLD rips/Various Artists - Ready or Notпјљ Deep Jazz Grooves From the CBC Radio Canada Archive 1967-1977 (2005) [FLAC]/11 Soya (CD Bonus Track).flac
Track gain : -1.71 dB
Peak : 0.781097
CRC32 hash (test run) : ED96E0A2
CRC32 hash : ED96E0A2
CRC32 hash (skip zero) : AFDD295D
AccurateRip v1 signature : 85C0B700
AccurateRip v2 signature : DAEAA943
->Accurately ripped (v2, confidence 6/6)
Statistics
Read error : 0
Jitter error (maybe fixed) : 0
Retry sector count : 0
Damaged sector count : 0
No errors occurred
End of status report
-----BEGIN XLD SIGNATURE-----
40xRDDBYsvZO75LNd01A3s2Jc0mzd65XWmcEp1K0efEczbQoFac82E5eqH5WLZ3Le_19weySfe9E.4.AZYv6gOLkLZNYem8ZtOfE0HK
-----END XLD SIGNATURE-----
 
Содержание индексной карты (.CUE)
TITLE "Ready or Not: Deep Jazz Grooves from the CBC Radio Canada Archive 1967-1977"
PERFORMER "Various"
REM GENRE "Jazz"
REM DATE "2005"
REM DISCID 880D5E0B
REM REPLAYGAIN_ALBUM_GAIN -5.73 dB
REM REPLAYGAIN_ALBUM_PEAK 0.988647
FILE "01 - Intro.flac" WAVE
TRACK 01 AUDIO
TITLE "Intro"
PERFORMER "No Artist"
REM REPLAYGAIN_TRACK_GAIN -1.56 dB
REM REPLAYGAIN_TRACK_PEAK 0.555878
INDEX 01 00:00:00
FILE "02 - Emile Normand Sextet - Senor Blues.flac" WAVE
TRACK 02 AUDIO
TITLE "Senor Blues"
PERFORMER "Emile Normand Sextet"
REM REPLAYGAIN_TRACK_GAIN -5.11 dB
REM REPLAYGAIN_TRACK_PEAK 0.988647
INDEX 01 00:00:00
FILE "03 - Kathryn Moses - Ready or Not.flac" WAVE
TRACK 03 AUDIO
TITLE "Ready or Not"
PERFORMER "Kathryn Moses"
REM REPLAYGAIN_TRACK_GAIN -6.09 dB
REM REPLAYGAIN_TRACK_PEAK 0.988647
INDEX 01 00:00:00
FILE "04 - Nick Ayoub - Saphir.flac" WAVE
TRACK 04 AUDIO
TITLE "Saphir"
PERFORMER "Nick Ayoub"
REM REPLAYGAIN_TRACK_GAIN -4.90 dB
REM REPLAYGAIN_TRACK_PEAK 0.988647
INDEX 01 00:00:00
FILE "05 - Electric Ninja Group - Star of India.flac" WAVE
TRACK 05 AUDIO
TITLE "Star of India"
PERFORMER "Electric Ninja Group"
REM REPLAYGAIN_TRACK_GAIN -5.95 dB
REM REPLAYGAIN_TRACK_PEAK 0.988647
INDEX 01 00:00:00
FILE "06 - Maynard Ferguson Sextet - My Sister.flac" WAVE
TRACK 06 AUDIO
TITLE "My Sister"
PERFORMER "Maynard Ferguson Sextet"
REM REPLAYGAIN_TRACK_GAIN -6.64 dB
REM REPLAYGAIN_TRACK_PEAK 0.909454
INDEX 01 00:00:00
FILE "07 - Billy Robinson - The Family.flac" WAVE
TRACK 07 AUDIO
TITLE "The Family"
PERFORMER "Billy Robinson"
REM REPLAYGAIN_TRACK_GAIN -6.68 dB
REM REPLAYGAIN_TRACK_PEAK 0.988647
INDEX 01 00:00:00
FILE "08 - Pierre Nadeau Trio - Consuelo.flac" WAVE
TRACK 08 AUDIO
TITLE "Consuelo"
PERFORMER "Pierre Nadeau Trio"
REM REPLAYGAIN_TRACK_GAIN -4.42 dB
REM REPLAYGAIN_TRACK_PEAK 0.988647
INDEX 01 00:00:00
FILE "09 - Al Michalek Quartet - Voices.flac" WAVE
TRACK 09 AUDIO
TITLE "Voices"
PERFORMER "Al Michalek Quartet"
REM REPLAYGAIN_TRACK_GAIN -6.35 dB
REM REPLAYGAIN_TRACK_PEAK 0.988647
INDEX 01 00:00:00
FILE "10 - Fred Stone - Lawrence of Arabia.flac" WAVE
TRACK 10 AUDIO
TITLE "Lawrence of Arabia"
PERFORMER "Fred Stone"
REM REPLAYGAIN_TRACK_GAIN -4.63 dB
REM REPLAYGAIN_TRACK_PEAK 0.988647
INDEX 01 00:00:00
FILE "11 - Pierre Leduc - Soya.flac" WAVE
TRACK 11 AUDIO
TITLE "Soya"
PERFORMER "Pierre Leduc"
REM REPLAYGAIN_TRACK_GAIN -1.71 dB
REM REPLAYGAIN_TRACK_PEAK 0.781097
INDEX 01 00:00:00
 
Отчет CUETools
[CUETools log; Date: 28.01.2017 1:11:18; Version: 2.1.5]
[CTDB TOCID: bMiI63sqkNUpDsqfC8SAcANp3ic-] found.
Track | CTDB Status
1 | (2/2) Accurately ripped
2 | (2/2) Accurately ripped
3 | (2/2) Accurately ripped
4 | (2/2) Accurately ripped
5 | (2/2) Accurately ripped
6 | (2/2) Accurately ripped
7 | (2/2) Accurately ripped
8 | (2/2) Accurately ripped
9 | (2/2) Accurately ripped
10 | (2/2) Accurately ripped
11 | (2/2) Accurately ripped
[AccurateRip ID: 0012f276-00af1e38-880d5e0b] found.
Track [ CRC | V2 ] Status
01 [a0a37522|7bcb35ce] (0+6/6) Accurately ripped
02 [3a58c8ae|c6766058] (0+6/6) Accurately ripped
03 [6bac59ac|14c8f788] (0+6/6) Accurately ripped
04 [b2682d39|86ed7de0] (0+6/6) Accurately ripped
05 [840691ef|80bc82d4] (0+6/6) Accurately ripped
06 [10db0f35|19044e43] (0+6/6) Accurately ripped
07 [943b3432|21b33ecf] (0+6/6) Accurately ripped
08 [ebac9a14|6012481e] (0+6/6) Accurately ripped
09 [d0af6a96|740f0f34] (0+6/6) Accurately ripped
10 [962da84d|84ccba4b] (0+6/6) Accurately ripped
11 [85c0b700|daeaa943] (0+6/6) Accurately ripped
Track Peak [ CRC32 ] [W/O NULL]
-- 98,8 [6CEBDF30] [DD626D33]
01 55,5 [D69F9DE5] [710DFD15]
02 98,8 [C3A0D4BA] [2C9CA851]
03 98,8 [A1ECE07C] [6A5698E3]
04 98,8 [EF74A241] [F0E2C051]
05 98,8 [6E5C462E] [C76ACE0E]
06 90,9 [CDBC8D9F] [4376D35E]
07 98,8 [3D516728] [2E87BD9E]
08 98,8 [3E3097E7] [CBD145FF]
09 98,8 [CA4504CE] [7F75425A]
10 98,8 [4F273061] [2B7E3759]
11 78,1 [ED96E0A2] [AFDD295D]
 
Об альбоме (сборнике)
A much-needed look at a scene that's hardly ever gotten its due – and a wealth of beautiful jazz tracks from our brothers to the north! Canada's always done a better job of supporting its artists with national assistance than the US – so it's no surprise that some of the best jazz recordings of the Canadian scene come from the archives of it's state-owned broadcasting company – a key force in supporting great music of all types, but especially important here when it comes to jazz! The work on the set is all hand-picked by John Kong – of both the Do Right label, and the international groove underground – and it's all chosen with an ear towards the kind of older jazz tracks that are playing big on the international scene these days. Think of the inspiration for Schema, or the jazz tracks selected by Gilles Peterson, and you'll have a great idea of the grooves on this set!
Приватный:
Нет (DHT включён)
Размер:
369.88 Мб (387,846,963 байт) » файлов: 17
Участники:
0 раздают, 0 качают (0 участников всего)
Внешние участники:
1 раздают, 0 качают (1 участников всего) [ Обновить ]
No seeders - write a personal message to user M0p94ok. Нет сидеров - пишите личное сообщение пользователю M0p94ok.
12:52
81
Нет комментариев. Ваш будет первым!