Вы используете незарегистрированную версию компонента "Вкладки"!

Поиск

(Abstract, Avant-Garde Jazz, Future Jazz) Kammerflimmer Kollektief - Remixed - 2006, FLAC (tracks+.cue) lossless

Треклист:
Kammerflimmer Kollektief / Remixed
Жанр: Abstract, Avant-Garde Jazz, Future Jazz
Страна-производитель диска: Germany
Год издания диска: 2006
Издатель (лейбл): Staubgold
Номер по каталогу: staubgold 70
Страна: Germany
Аудио кодек: FLAC (*.flac)
Тип рипа: tracks+.cue
Битрейт аудио: lossless
Продолжительность: 53:21
Источник: what.cd
Наличие сканов в содержимом раздачи: нет
Треклист:
01. Matt (David Last's Doki Doki Rock Mix) [6:26]
02. After The Rain (Aoki Takamasa Remix) [3:52]
03. Lichterloh (Nôze Remix) [4:57]
04. Unstet-Schleifen (Jan Jelinek Remix) [6:46]
05. Absencen (Sutekh Remix) [4:43]
06. Nachtwache (Lump200 Remix) [5:39]
07. Unstet (Secondo Reshuffle) [6:00]
08. Radian On Equilibrium (Radian Remix) [3:49]
09. Shibboleth (Hans Appelqvist Remix) [4:58]
10. Matt (David Last's Pocket Pet Mix) [6:11]
 
Лог создания рипа
Exact Audio Copy V1.0 beta 3 from 29. August 2011
EAC extraction logfile from 7. December 2011, 13:48
Kammerflimmer Kollektiv / Remixed
Used drive : ATAPI DVD A DH20A4P Adapter: 0 ID: 0
Read mode : Secure
Utilize accurate stream : Yes
Defeat audio cache : Yes
Make use of C2 pointers : No
Read offset correction : 6
Overread into Lead-In and Lead-Out : No
Fill up missing offset samples with silence : Yes
Delete leading and trailing silent blocks : No
Null samples used in CRC calculations : Yes
Used interface : Native Win32 interface for Win NT & 2000
Gap handling : Appended to previous track
Used output format : User Defined Encoder
Selected bitrate : 1024 kBit/s
Quality : High
Add ID3 tag : No
Command line compressor : C:\Program Files\Exact Audio Copy\Flac\flac.exe
Additional command line options : -8 -V -T "ARTIST=%artist%" -T "TITLE=%title%" -T "ALBUM=%albumtitle%" -T "DATE=%year%" -T "TRACKNUMBER=%tracknr1%" -T "GENRE=%genre%" -T "DISCNUMBER=%cdnumber%" -T "TOTALDISCS=%totalcds%" -T "TOTALTRACKS=%numtracks%" %source% -o %dest%
TOC of the extracted CD
Track | Start | Length | Start sector | End sector
---------------------------------------------------------
1 | 1:27.15 | 6:25.39 | 6540 | 35453
2 | 7:52.54 | 3:51.72 | 35454 | 52850
3 | 11:44.51 | 4:57.19 | 52851 | 75144
4 | 16:41.70 | 6:45.70 | 75145 | 105589
5 | 23:27.65 | 4:42.73 | 105590 | 126812
6 | 28:10.63 | 5:38.73 | 126813 | 152235
7 | 33:49.61 | 6:00.20 | 152236 | 179255
8 | 39:50.06 | 3:48.70 | 179256 | 196425
9 | 43:39.01 | 4:58.01 | 196426 | 218776
10 | 48:37.02 | 6:11.02 | 218777 | 246603
Track 1
Filename C:\Remixed\01-Kammerflimmer_Kollektiv-David_Last-Matt_(David_Last`s_Doki_Doki_Rock_Mix).wav
Pre-gap length 0:01:29.20
Peak level 98.8 %
Extraction speed 2.0 X
Track quality 100.0 %
Test CRC 16C94F00
Copy CRC 16C94F00
Track not present in AccurateRip database
Copy OK
Track 2
Filename C:\Remixed\02-Kammerflimmer_Kollektiv-Aoki_Takamasa-After_The_Rain-Remix.wav
Pre-gap length 0:00:00.76
Peak level 98.8 %
Extraction speed 2.1 X
Track quality 100.0 %
Test CRC 31DA920C
Copy CRC 31DA920C
Track not present in AccurateRip database
Copy OK
Track 3
Filename C:\Remixed\03-Kammerflimmer_Kollektiv-Nôze-Lichterloh-Remix.wav
Pre-gap length 0:00:03.94
Peak level 98.8 %
Extraction speed 2.4 X
Track quality 100.0 %
Test CRC D314C33F
Copy CRC D314C33F
Track not present in AccurateRip database
Copy OK
Track 4
Filename C:\Remixed\04-Kammerflimmer_Kollektiv-Jan_Jelinek-Unstet-Remix.wav
Pre-gap length 0:00:00.76
Peak level 98.8 %
Extraction speed 2.7 X
Track quality 100.0 %
Test CRC 4736F30D
Copy CRC 4736F30D
Track not present in AccurateRip database
Copy OK
Track 5
Filename C:\Remixed\05-Kammerflimmer_Kollektiv-Sutekh-Absencen-Remix.wav
Pre-gap length 0:00:02.77
Peak level 98.8 %
Extraction speed 2.8 X
Track quality 100.0 %
Test CRC 53A26D0B
Copy CRC 53A26D0B
Track not present in AccurateRip database
Copy OK
Track 6
Filename C:\Remixed\06-Kammerflimmer_Kollektiv-Lump200-Nachtwache_Remixed.wav
Pre-gap length 0:00:00.50
Peak level 98.8 %
Extraction speed 2.6 X
Track quality 99.9 %
Test CRC 0508A262
Copy CRC 0508A262
Track not present in AccurateRip database
Copy OK
Track 7
Filename C:\Remixed\07-Kammerflimmer_Kollektiv-Secondo-Unstet_(Secondo_Reshuffle).wav
Pre-gap length 0:00:01.97
Peak level 98.8 %
Extraction speed 3.2 X
Track quality 100.0 %
Test CRC F8FC21BA
Copy CRC F8FC21BA
Track not present in AccurateRip database
Copy OK
Track 8
Filename C:\Remixed\08-Kammerflimmer_Kollektiv-Radian-Radian_On_Equilibrium.wav
Pre-gap length 0:00:01.48
Peak level 96.6 %
Extraction speed 3.2 X
Track quality 100.0 %
Test CRC 6E4066E3
Copy CRC 6E4066E3
Track not present in AccurateRip database
Copy OK
Track 9
Filename C:\Remixed\09-Kammerflimmer_Kollektiv-Hans_Appelqvist-Shibboleth-Remix.wav
Pre-gap length 0:00:01.16
Peak level 98.8 %
Extraction speed 3.3 X
Track quality 100.0 %
Test CRC A2C449E2
Copy CRC A2C449E2
Track not present in AccurateRip database
Copy OK
Track 10
Filename C:\Remixed\10-Kammerflimmer_Kollektiv-David_Last,Pocket_Pet-Matt_(Pocket_Pet_Mix).wav
Pre-gap length 0:00:00.52
Peak level 98.8 %
Extraction speed 3.7 X
Track quality 100.0 %
Test CRC 4B4B73D2
Copy CRC 4B4B73D2
Track not present in AccurateRip database
Copy OK
None of the tracks are present in the AccurateRip database
No errors occurred
End of status report
==== Log checksum DEBCCF33DD4DB2EF15D0054DC49EE97036F14E0CA348F4095C79ABD993508D30 ====
 
Содержание индексной карты (.CUE)
REM GENRE Electronic, Jazz
REM DATE 2006
REM DISCID 870C810A
REM COMMENT "ExactAudioCopy v0.99pb5"
PERFORMER "Kammerflimmer Kollektief"
TITLE "Remixed"
FILE "01-Kammerflimmer_Kollektiv-David_Last-Matt_(David_Last`s_Doki_Doki_Rock_Mix).wav" WAVE
TRACK 01 AUDIO
TITLE "Matt (David Last's Doki Doki Rock Mix)"
PERFORMER "Kammerflimmer Kollektief"
PREGAP 01:27:15
INDEX 01 00:00:00
TRACK 02 AUDIO
TITLE "After The Rain (Aoki Takamasa Remix)"
PERFORMER "Kammerflimmer Kollektief"
INDEX 00 06:24:57
FILE "02-Kammerflimmer_Kollektiv-Aoki_Takamasa-After_The_Rain-Remix.wav" WAVE
INDEX 01 00:00:00
TRACK 03 AUDIO
TITLE "Lichterloh (Noze Remix)"
PERFORMER "Kammerflimmer Kollektief"
INDEX 00 03:48:01
FILE "03-Kammerflimmer_Kollektiv-Noze-Lichterloh-Remix.wav" WAVE
INDEX 01 00:00:00
TRACK 04 AUDIO
TITLE "Unstet-Schleifen (Jan Jelinek Remix)"
PERFORMER "Kammerflimmer Kollektief"
INDEX 00 04:56:37
FILE "04-Kammerflimmer_Kollektiv-Jan_Jelinek-Unstet-Remix.wav" WAVE
INDEX 01 00:00:00
TRACK 05 AUDIO
TITLE "Absencen (Sutekh Remix)"
PERFORMER "Kammerflimmer Kollektief"
INDEX 00 06:43:12
FILE "05-Kammerflimmer_Kollektiv-Sutekh-Absencen-Remix.wav" WAVE
INDEX 01 00:00:00
TRACK 06 AUDIO
TITLE "Nachtwache (Lump200 Remix)"
PERFORMER "Kammerflimmer Kollektief"
INDEX 00 04:42:35
FILE "06-Kammerflimmer_Kollektiv-Lump200-Nachtwache_Remixed.wav" WAVE
INDEX 01 00:00:00
TRACK 07 AUDIO
TITLE "Unstet (Secondo Reshuffle)"
PERFORMER "Kammerflimmer Kollektief"
INDEX 00 05:37:00
FILE "07-Kammerflimmer_Kollektiv-Secondo-Unstet_(Secondo_Reshuffle).wav" WAVE
INDEX 01 00:00:00
TRACK 08 AUDIO
TITLE "Radian On Equilibrium (Radian Remix)"
PERFORMER "Kammerflimmer Kollektief"
INDEX 00 05:58:59
FILE "08-Kammerflimmer_Kollektiv-Radian-Radian_On_Equilibrium.wav" WAVE
INDEX 01 00:00:00
TRACK 09 AUDIO
TITLE "Shibboleth (Hans Appelqvist Remix)"
PERFORMER "Kammerflimmer Kollektief"
INDEX 00 03:47:58
FILE "09-Kammerflimmer_Kollektiv-Hans_Appelqvist-Shibboleth-Remix.wav" WAVE
INDEX 01 00:00:00
TRACK 10 AUDIO
TITLE "Matt (David Last's Pocket Pet Mix)"
PERFORMER "Kammerflimmer Kollektief"
INDEX 00 04:57:37
FILE "10-Kammerflimmer_Kollektiv-David_Last,Pocket_Pet-Matt_(Pocket_Pet_Mix).wav" WAVE
INDEX 01 00:00:00
 
О группе
Kammerflimmer Kollektief began as the one-man experimental excursions of Thomas Weber. Trapping ambient noise, live and synthetic drums, guitars, strings, upright bass and keyboards into interlocking rhythmic explosions, Weber expanded the group to a live six piece in 1999 and has been busy ever since. From their Karlsruhe, Germany home base, this ensemble effortlessly blends experimental electronic elements and moody free-form jazz to stunning effect.
 
Об альбоме
Re-release of this long-deleted Kammerflimmer Kollektief classic feat. 15min+ of new studio recordings. An assemblage of intriguing electro/acoustic elements, Hysteria is the newest offering from Karlsruhe's Kammerflimmer Kollektief. Incorporating samples, analog synths, and a plethora of stringed instruments (including an acoustic jazz ensemble), Hysteria taunts the fine line of control between abstraction and realism, with a beauty that's stunning at times.
По всем вопросам пишите личное сообщение пользователю M0p94ok.
11:18
133
Нет комментариев. Ваш будет первым!