Поиск

(Abstract, Avant-Garde Jazz, Future Jazz) Dietmar Dath & Kammerflimmer Kollektief - Im Erwachten Garten - 2009, FLAC (tracks+.cue) lossless

Треклист:
Dietmar Dath & Kammerflimmer Kollektief / Im Erwachten Garten
Жанр: Abstract, Avant-Garde Jazz, Future Jazz
Страна-производитель диска: Germany
Год издания диска: 2009
Издатель (лейбл): Staubgold
Номер по каталогу: staubgold 94
Страна: Germany
Аудио кодек: FLAC (*.flac)
Тип рипа: tracks+.cue
Битрейт аудио: lossless
Продолжительность: 56:55
Источник: Waffles.fm
Наличие сканов в содержимом раздачи: нет
Треклист:
01. I. [9:35]
02. II. [25:23]
03. III. [12:43]
04. IV. [9:14]
 
Лог создания рипа
Exact Audio Copy V0.99 prebeta 5 from 4. May 2009
EAC extraction logfile from 23. October 2010, 12:25
Kammerflimmer Kollektief / Im Erwachten Garten
Used drive : TOSHIBA CD/DVDW SD-R6472 Adapter: 1 ID: 0
Read mode : Secure
Utilize accurate stream : Yes
Defeat audio cache : Yes
Make use of C2 pointers : No
Read offset correction : 116
Overread into Lead-In and Lead-Out : No
Fill up missing offset samples with silence : Yes
Delete leading and trailing silent blocks : No
Null samples used in CRC calculations : Yes
Used interface : Installed external ASPI interface
Gap handling : Appended to previous track
Used output format : User Defined Encoder
Selected bitrate : 1024 kBit/s
Quality : High
Add ID3 tag : No
Command line compressor : C:\Program Files\Exact Audio Copy\Flac\flac.exe
Additional command line options : -V -8 -T "artist=%a" -T "title=%t" -T "album=%g" -T "date=%y" -T "tracknumber=%n" -T "genre=%m" %s
TOC of the extracted CD
Track | Start | Length | Start sector | End sector
---------------------------------------------------------
1 | 0:00.00 | 9:34.67 | 0 | 43116
2 | 9:34.67 | 25:22.65 | 43117 | 157331
3 | 34:57.57 | 12:42.49 | 157332 | 214530
4 | 47:40.31 | 9:14.20 | 214531 | 256100
Track 1
Filename D:\My Music\Kammerflimmer Kollektief - 2009 - Im Erwachten Garten [EAC-FLAC]\01 - I..wav
Pre-gap length 0:00:02.00
Peak level 90.2 %
Track quality 100.0 %
Test CRC 88DDF573
Copy CRC 88DDF573
Accurately ripped (confidence 2) [9F1CFAD1]
Copy OK
Track 2
Filename D:\My Music\Kammerflimmer Kollektief - 2009 - Im Erwachten Garten [EAC-FLAC]\02 - II..wav
Peak level 100.0 %
Track quality 100.0 %
Test CRC 6A484DD9
Copy CRC 6A484DD9
Accurately ripped (confidence 2) [4FCC82F3]
Copy OK
Track 3
Filename D:\My Music\Kammerflimmer Kollektief - 2009 - Im Erwachten Garten [EAC-FLAC]\03 - III..wav
Peak level 100.0 %
Track quality 100.0 %
Test CRC D9F5CC3E
Copy CRC D9F5CC3E
Accurately ripped (confidence 2) [E834A821]
Copy OK
Track 4
Filename D:\My Music\Kammerflimmer Kollektief - 2009 - Im Erwachten Garten [EAC-FLAC]\04 - IV..wav
Peak level 86.4 %
Track quality 100.0 %
Test CRC 941D5BAD
Copy CRC 941D5BAD
Accurately ripped (confidence 2) [1AAF521E]
Copy OK
All tracks accurately ripped
No errors occurred
End of status report
 
Содержание индексной карты (.CUE)
REM GENRE Avantgarde
REM DATE 2009
REM DISCID 3A0D5604
REM COMMENT "ExactAudioCopy v0.99pb5"
PERFORMER "Kammerflimmer Kollektief"
TITLE "Im Erwachten Garten"
FILE "01 - I..wav" WAVE
TRACK 01 AUDIO
TITLE "I."
PERFORMER "Kammerflimmer Kollektief"
ISRC DES100900010
INDEX 01 00:00:00
FILE "02 - II..wav" WAVE
TRACK 02 AUDIO
TITLE "II."
PERFORMER "Kammerflimmer Kollektief"
ISRC DES100900011
INDEX 01 00:00:00
FILE "03 - III..wav" WAVE
TRACK 03 AUDIO
TITLE "III."
PERFORMER "Kammerflimmer Kollektief"
ISRC DES100900012
INDEX 01 00:00:00
FILE "04 - IV..wav" WAVE
TRACK 04 AUDIO
TITLE "IV."
PERFORMER "Kammerflimmer Kollektief"
ISRC DES100900013
INDEX 01 00:00:00
 
Об исполнителях
Kammerflimmer Kollektief began as the one-man experimental excursions of Thomas Weber. Trapping ambient noise, live and synthetic drums, guitars, strings, upright bass and keyboards into interlocking rhythmic explosions, Weber expanded the group to a live six piece in 1999 and has been busy ever since. From their Karlsruhe, Germany home base, this ensemble effortlessly blends experimental electronic elements and moody free-form jazz to stunning effect.
Dietmar Dath is the author, who went from journalism (he's an erstwhile editor of the German magazine Spex and the daily newspaper Frankfurter Allgemeine Zeitung) to writing both novels and non-fiction.
 
Об альбоме
A kind of pastoral narcosis, all shadows with occasional gleams of detail.
 
Музыканты
Solo-Improvisationen von Christopher Brunner (Schlagzeug: I & IV), Dietrich Foth (Alt-Saxophon: I) & Jochen Seiter (E-Bass: II) und die Unterstützung von Barbara Kirchner. Gracie Mille: Margot Weber, Jürgen Galli, Christoph Linder, Lizzy Mercier Descloux (für „Long Voodoo Ago"), Wolfgang Meinking, Philippe Petit, Ralf Schneider, Markus Detmer, Jörg Sundermeier & Werner Labisch.
По всем вопросам пишите личное сообщение пользователю M0p94ok.
11:18
157
Нет комментариев. Ваш будет первым!