Вы используете незарегистрированную версию компонента "Вкладки"!

Поиск

(Abstract, Avant-Garde Jazz, Future Jazz) Kammerflimmer Kollektief - Jinx - 2007, FLAC (tracks+.cue) lossless

Треклист:
Kammerflimmer Kollektief / Jinx
Жанр: Abstract, Avant-Garde Jazz, Future Jazz
Страна-производитель диска: Germany
Год издания диска: 2007
Издатель (лейбл): Staubgold
Номер по каталогу: staubgold 77
Страна: Germany
Аудио кодек: FLAC (*.flac)
Тип рипа: tracks+.cue
Битрейт аудио: lossless
Продолжительность: 45:47
Источник: What.cd
Наличие сканов в содержимом раздачи: нет
Треклист:
01. Palimpsest [6:27]
02. Jinx [7:21]
03. Live At The Cactus Tree Motel [4:14]
04. Gammler, Zen & Hohe Berge [3:55]
05. Both Eyes Tight Shut [3:27]
06. Jinx (Version) [7:10]
07. Nest [2:26]
08. Subnarkotisch [10:47]
 
Лог создания рипа
EAC extraction logfile from 30. June 2007, 21:18 for CD
/ CD Master
Used drive : HL-DT-STDVDRRW GSA-2164D Adapter: 1 ID: 0
Read mode : Secure with NO C2, accurate stream, disable cache
Read offset correction : 102
Overread into Lead-In and Lead-Out : No
Used output format : C:\Program Files\Exact Audio Copy\flac.exe (User Defined Encoder)
192 kBit/s
Additional command line options : -V -8 -T "artist=%a" -T "title=%t" -T "album=%g" -T "date=%y" -T "tracknumber=%n" -T "genre=%m" %s
Other options :
Fill up missing offset samples with silence : Yes
Delete leading and trailing silent blocks : No
Installed external ASPI interface
Track 1
Filename C:\muz\kammerflimer - jinx\01 - - Palimpsest.wav
Pre-gap length 0:00:02.00
Peak level 88.1 %
Track quality 100.0 %
Test CRC E1B3578F
Copy CRC E1B3578F
Copy OK
Track 2
Filename C:\muz\kammerflimer - jinx\02 - - Jinx.wav
Peak level 99.5 %
Track quality 100.0 %
Test CRC D2BFF04F
Copy CRC D2BFF04F
Copy OK
Track 3
Filename C:\muz\kammerflimer - jinx\03 - - Live t The Cactus Tree Motel.wav
Pre-gap length 0:00:02.50
Peak level 88.1 %
Track quality 100.0 %
Test CRC AED729C9
Copy CRC AED729C9
Copy OK
Track 4
Filename C:\muz\kammerflimer - jinx\04 - - Gammler, Zen & Hohe Berge.wav
Peak level 88.1 %
Track quality 100.0 %
Test CRC 7A519F98
Copy CRC 7A519F98
Copy OK
Track 5
Filename C:\muz\kammerflimer - jinx\05 - - Both Eyes Tight Shut.wav
Peak level 88.1 %
Track quality 99.9 %
Test CRC 751E2B3E
Copy CRC 751E2B3E
Copy OK
Track 6
Filename C:\muz\kammerflimer - jinx\06 - - Jinx (version).wav
Peak level 88.1 %
Track quality 99.9 %
Test CRC 43823744
Copy CRC 43823744
Copy OK
Track 7
Filename C:\muz\kammerflimer - jinx\07 - - Nest.wav
Peak level 88.1 %
Track quality 100.0 %
Test CRC FEEE3DBE
Copy CRC FEEE3DBE
Copy OK
Track 8
Filename C:\muz\kammerflimer - jinx\08 - - Subnarkotisch.wav
Peak level 88.1 %
Track quality 100.0 %
Test CRC CCB21CDC
Copy CRC CCB21CDC
Copy OK
No errors occured
End of status report
 
Содержание индексной карты (.CUE) (самопал)
REM GENRE Jazz
REM DATE 2007
PERFORMER "Kammerflimmer Kollektief"
TITLE "Jinx"
FILE "01 - - Palimpsest.flac" WAVE
TRACK 01 AUDIO
TITLE "Palimpsest"
INDEX 01 00:00:00
FILE "02 - - Jinx.flac" WAVE
TRACK 02 AUDIO
TITLE "Jinx"
INDEX 01 00:00:00
FILE "03 - - Live t The Cactus Tree Motel.flac" WAVE
TRACK 03 AUDIO
TITLE "Live At The Cactus Tree Motel"
INDEX 01 00:00:00
FILE "04 - - Gammler, Zen & Hohe Berge.flac" WAVE
TRACK 04 AUDIO
TITLE "Gammler, Zen & Hohe Berge"
INDEX 01 00:00:00
FILE "05 - - Both Eyes Tight Shut.flac" WAVE
TRACK 05 AUDIO
TITLE "Both Eyes Tight Shut"
INDEX 01 00:00:00
FILE "06 - - Jinx (version).flac" WAVE
TRACK 06 AUDIO
TITLE "Jinx (Version)"
INDEX 01 00:00:00
FILE "07 - - Nest.flac" WAVE
TRACK 07 AUDIO
TITLE "Nest"
INDEX 01 00:00:00
FILE "08 - - Subnarkotisch.flac" WAVE
TRACK 08 AUDIO
TITLE "Subnarkotisch"
INDEX 01 00:00:00
 
О группе
Kammerflimmer Kollektief began as the one-man experimental excursions of Thomas Weber. Trapping ambient noise, live and synthetic drums, guitars, strings, upright bass and keyboards into interlocking rhythmic explosions, Weber expanded the group to a live six piece in 1999 and has been busy ever since. From their Karlsruhe, Germany home base, this ensemble effortlessly blends experimental electronic elements and moody free-form jazz to stunning effect.
 
Об альбоме
Jinx is one of Kammerflimmer Kollektief's finest and most intimate releases yet. The one-time collective has boiled down to the core trio of Heike Aumüller (harmonium and vocals, mostly), Johannes Frisch (double bass) and Tom Weber (guitar), augmented by a different cast of guest musicians on each track. Experimental guitarist Martin Siewert (of Trapist) is featured on over half of the album. Also appearing are Heike Wendelin, Dietrich Foth, Christopher Brunner, Harald Kimmig, and Marco Preitschopf. Jinx is a particularly melodious and quiet album that focuses on the gentler side of the group. Except for "Palimpsest"'s emotional surge, the music remains soft and soothing, which does not exclude a textural approach with a certain avant-garde edge. "Palimpsest" is one of the set's highlights, thanks in part to Wendelin's inspired viola solo. The title track and its alternate incarnation "Jinx (Version)" are delicate and very pretty affairs. Simple and melodious, the trio track "Nest" is also a defining moment of the album. The group reaches its largest membership on "Live at the Cactus Tree Motel," a short piece featuring sax player Foth, drummer Brunner, and guitarist Siewert, along with the trio. Despite its augmented work force, the track ranks among the quietest on the album and shows just how the Kollektief knows how to value each and every contribution. The album concludes on the longer "Subnarkotisch," a gritty and abstract improvisation with electronician Marco Preitschopf. Well balanced, rather easy to approach and overall more satisfying than Absencen, Jinx definitely marks a new turn in the group's music, although the implications of that change are yet to be fully grasped.
 
Музыканты
Martin Siewert (guitar, lap steel guitar, mandocello); Tom Weber (guitar, piano, Wurlitzer organ, percussion, electronics); Harald Kimmig (violin); Heike Wendelin (viola); Johannes Fritzch (harmonica, double bass, percussion); Dietrich Foth (soprano saxophone, alto saxophone); Aumüller (harmonium, synthesizer, percussion); Christopher Brunner (drums).
По всем вопросам пишите личное сообщение пользователю M0p94ok.
11:17
252
Нет комментариев. Ваш будет первым!