Вы используете незарегистрированную версию компонента "Вкладки"!

Поиск

(Free Improvisation) Dominic Duval - Songs for Krakow - 2007, FLAC (tracks+.cue) lossless

(Free Improvisation) Dominic Duval - Songs for Krakow - 2007, FLAC (tracks+.cue) lossless
Треклист:
Dominic Duval / Songs for Krakow
Жанр: Free Improvisation
Страна-производитель диска: Польша
Год издания диска: 2007
Издатель (лейбл): Not Two Records
Номер по каталогу: MW 778-2
Страна: США
Аудио кодек: FLAC (*.flac)
Тип рипа: tracks+.cue
Битрейт аудио: lossless
Продолжительность: 49:45
Источник (релизер): другой трекер (iwals)
Наличие сканов в содержимом раздачи: да
Треклист:
1. the truth [08:27]
2. cobble stones (a path) [06:57]
3. where do we go from here? [04:43]
4. images from the dark [08:13]
5. synagogues (where or when) [07:11]
6. direct conflict (remember) [05:36]
7. The Kazimierz [05:08]
8. in a sentimental mood (in memory of my Mother and Father) [05:03]
1-7 composed by Dominic Duval, 8 - Duke Ellington
recorded at alchemia, krakow, 1 november 2007
 
Лог создания рипа
Exact Audio Copy V0.99 prebeta 4 from 23. January 2008
EAC extraction logfile from 31. July 2009, 19:34
Dominic Duval / Songs for Krakow
Used drive : HL-DT-STBDDVDRW GGC-H20L Adapter: 1 ID: 0
Read mode : Secure
Utilize accurate stream : Yes
Defeat audio cache : Yes
Make use of C2 pointers : No
Read offset correction : 667
Overread into Lead-In and Lead-Out : No
Fill up missing offset samples with silence : Yes
Delete leading and trailing silent blocks : No
Null samples used in CRC calculations : Yes
Used interface : Native Win32 interface for Win NT & 2000
Gap handling : Appended to previous track
Used output format : User Defined Encoder
Selected bitrate : 768 kBit/s
Quality : High
Add ID3 tag : No
Command line compressor : D:\Audio\FLAC\flac.exe
Additional command line options : -6 -V -T "ARTIST=%a" -T "TITLE=%t" -T "ALBUM=%g" -T "DATE=%y" -T "TRACKNUMBER=%n" -T "GENRE=%m" -T "COMMENT=%e" %s -o %d
TOC of the extracted CD
Track | Start | Length | Start sector | End sector
---------------------------------------------------------
1 | 0:00.00 | 4:36.09 | 0 | 20708
2 | 4:36.09 | 8:15.33 | 20709 | 57866
3 | 12:51.42 | 8:03.21 | 57867 | 94112
4 | 20:54.63 | 6:35.03 | 94113 | 123740
5 | 27:29.66 | 5:15.22 | 123741 | 147387
6 | 32:45.13 | 5:03.57 | 147388 | 170169
7 | 37:48.70 | 7:01.03 | 170170 | 201747
8 | 44:49.73 | 4:54.40 | 201748 | 223837
Track 1
Filename E:\New Rip\Dominic Duval - Songs for Krakow\01 - the truth.wav
Pre-gap length 0:00:02.00
Peak level 96.6 %
Track quality 100.0 %
Test CRC A039BE8D
Copy CRC A039BE8D
Copy OK
Track 2
Filename E:\New Rip\Dominic Duval - Songs for Krakow\02 - cobble stones (a path).wav
Peak level 96.6 %
Track quality 99.9 %
Test CRC 3477CD4D
Copy CRC 3477CD4D
Copy OK
Track 3
Filename E:\New Rip\Dominic Duval - Songs for Krakow\03 - where do we go from here .wav
Peak level 96.6 %
Track quality 100.0 %
Test CRC 08D5FB30
Copy CRC 08D5FB30
Copy OK
Track 4
Filename E:\New Rip\Dominic Duval - Songs for Krakow\04 - images from the dark.wav
Peak level 96.6 %
Track quality 100.0 %
Test CRC CC55BC26
Copy CRC CC55BC26
Copy OK
Track 5
Filename E:\New Rip\Dominic Duval - Songs for Krakow\05 - synagogues (where or when).wav
Peak level 94.4 %
Track quality 100.0 %
Test CRC D9912AD0
Copy CRC D9912AD0
Copy OK
Track 6
Filename E:\New Rip\Dominic Duval - Songs for Krakow\06 - direct conflict (remember).wav
Peak level 96.6 %
Track quality 100.0 %
Test CRC 1CBA3361
Copy CRC 1CBA3361
Copy OK
Track 7
Filename E:\New Rip\Dominic Duval - Songs for Krakow\07 - The Kazimierz.wav
Peak level 96.6 %
Track quality 99.9 %
Test CRC 4EF2C676
Copy CRC 4EF2C676
Copy OK
Track 8
Filename E:\New Rip\Dominic Duval - Songs for Krakow\08 - in a sentimental mood (in memory of my Mother and Father).wav
Peak level 96.6 %
Track quality 99.9 %
Test CRC 6503F35B
Copy CRC 6503F35B
Copy OK
No errors occurred
End of status report
 
Содержание индексной карты (.CUE)
REM GENRE Jazz
REM DATE 2007
REM DISCID 730BA808
REM COMMENT "ExactAudioCopy v0.99pb4"
PERFORMER "Dominic Duval"
TITLE "Songs for Krakow"
FILE "01 - the truth.wav" WAVE
TRACK 01 AUDIO
TITLE "the truth"
PERFORMER "Dominic Duval"
INDEX 01 00:00:00
FILE "02 - cobble stones (a path).wav" WAVE
TRACK 02 AUDIO
TITLE "cobble stones (a path)"
PERFORMER "Dominic Duval"
INDEX 01 00:00:00
FILE "03 - where do we go from here .wav" WAVE
TRACK 03 AUDIO
TITLE "where do we go from here? "
PERFORMER "Dominic Duval"
INDEX 01 00:00:00
FILE "04 - images from the dark.wav" WAVE
TRACK 04 AUDIO
TITLE "images from the dark "
PERFORMER "Dominic Duval"
INDEX 01 00:00:00
FILE "05 - synagogues (where or when).wav" WAVE
TRACK 05 AUDIO
TITLE "synagogues (where or when)"
PERFORMER "Dominic Duval"
INDEX 01 00:00:00
FILE "06 - direct conflict (remember).wav" WAVE
TRACK 06 AUDIO
TITLE "direct conflict (remember)"
PERFORMER "Dominic Duval"
INDEX 01 00:00:00
FILE "07 - The Kazimierz.wav" WAVE
TRACK 07 AUDIO
TITLE "The Kazimierz"
PERFORMER "Dominic Duval"
INDEX 01 00:00:00
FILE "08 - in a sentimental mood (in memory of my Mother and Father).wav" WAVE
TRACK 08 AUDIO
TITLE "in a sentimental mood (in memory of my Mother and Father)"
PERFORMER "Dominic Duval"
INDEX 01 00:00:00
 
Лог проверки качества
AUDIOCHECKER v2.0 beta (build 457) - by Dester - opdester@freemail.hu
~~~~~~~~~~~~~~~~~~~~~~~~~~~~~~~~~~
-=== DO NOT EDIT THIS FILE! ===-
Path: ...\songs for krakow 2007
1 -=- 01 - the truth.flac -=- CDDA (100%)
2 -=- 02 - cobble stones (a path).flac -=- CDDA (100%)
3 -=- 03 - where do we go from here .flac -=- CDDA (100%)
4 -=- 04 - images from the dark.flac -=- CDDA (100%)
5 -=- 05 - synagogues (where or when).flac -=- CDDA (100%)
6 -=- 06 - direct conflict (remember).flac -=- CDDA (100%)
7 -=- 07 - The Kazimierz.flac -=- CDDA (100%)
8 -=- 08 - in a sentimental mood (in memory of my Mother and Father).flac -=- CDDA (100%)
Summary 100,00% CDDA
17657412
 
Состав
Dominic Duval - bass
По всем вопросам пишите личное сообщение пользователю M0p94ok.
11:16
164
Нет комментариев. Ваш будет первым!