Вы используете незарегистрированную версию компонента "Вкладки"!

Поиск

(Avant-Garde Jazz, Modern Creative) Clifford Thornton New Art Ensemble — Freedom & Unity (1967) — 2001, FLAC (image+.cue) lossless

Треклист:
Clifford Thornton New Art Ensemble — Freedom & Unity (1967)
Жанр: Avant-Garde Jazz, Modern Creative
Год издания диска: 2001
Лейбл: Third World
Номер по каталогу: ALP225CD
Аудио кодек: FLAC (*.flac)
Тип рипа: image+.cue
Битрейт аудио: lossless
Продолжительность: 76:02
Риппер: barin99
Сканы есть
Треклист:
01. Free Huey (13:10)
02. 15th FLoor (8:51)
03. Miss Oula (4:43)
04. Kevin (The Theme) (0:22)
05. Exposure (10:09)
06. Uhuru (8:28)
07. 'O.C.T.' (4:30)
08. The Wake (complete version) (14:14)
09. Babe's Dilemma (5:10)
10. 'O.C.T.' (alternate take) (6:24)
 
 
Лог создания рипа
Exact Audio Copy V0.99 prebeta 5 from 4. May 2009
EAC extraction logfile from 2. April 2011, 20:50
Clifford Thornton / Clifford Thornton New Art Ensemble
Used drive : TSSTcorpDVD+-RW TS-U633A Adapter: 0 ID: 1
Read mode : Secure
Utilize accurate stream : Yes
Defeat audio cache : Yes
Make use of C2 pointers : No
Read offset correction : 6
Overread into Lead-In and Lead-Out : No
Fill up missing offset samples with silence : Yes
Delete leading and trailing silent blocks : No
Null samples used in CRC calculations : Yes
Used interface : Native Win32 interface for Win NT & 2000
Used output format : Internal WAV Routines
Sample format : 44.100 Hz; 16 Bit; Stereo
TOC of the extracted CD
Track | Start | Length | Start sector | End sector
---------------------------------------------------------
1 | 0:01.00 | 13:10.20 | 75 | 59344
2 | 13:11.20 | 8:51.35 | 59345 | 99204
3 | 22:02.55 | 4:43.32 | 99205 | 120461
4 | 26:46.12 | 0:21.62 | 120462 | 122098
5 | 27:07.74 | 10:09.13 | 122099 | 167786
6 | 37:17.12 | 8:28.11 | 167787 | 205897
7 | 45:45.23 | 4:30.19 | 205898 | 226166
8 | 50:15.42 | 14:13.72 | 226167 | 290213
9 | 64:29.39 | 5:09.56 | 290214 | 313444
10 | 69:39.20 | 6:23.63 | 313445 | 342232
Range status and errors
Selected range
Filename C:\_Arc\BARIN99\Clifford Thornton New Art Ensemble - Freedom & Unity\Clifford Thornton New Art Ensemble - Freedom & Unity.wav
Peak level 100.0 %
Range quality 100.0 %
Copy CRC 1A4631F0
Copy OK
No errors occurred
AccurateRip summary
Track 1 not present in database
Track 2 not present in database
Track 3 not present in database
Track 4 not present in database
Track 5 not present in database
Track 6 not present in database
Track 7 not present in database
Track 8 not present in database
Track 9 not present in database
Track 10 not present in database
None of the tracks are present in the AccurateRip database
End of status report
 
Содержание индексной карты (.CUE)
REM GENRE avantgarde
REM DATE 1967
REM DISCID 9111D20A
REM COMMENT "ExactAudioCopy v0.99pb5"
PERFORMER "Clifford Thornton"
TITLE "Clifford Thornton New Art Ensemble"
FILE "Clifford Thornton New Art Ensemble - Freedom & Unity.flac" WAVE
TRACK 01 AUDIO
TITLE "Free Huey"
PERFORMER "Clifford Thornton"
INDEX 00 00:00:00
INDEX 01 00:01:00
TRACK 02 AUDIO
TITLE "15th FLoor"
PERFORMER "Clifford Thornton"
INDEX 00 13:05:17
INDEX 01 13:11:20
TRACK 03 AUDIO
TITLE "Miss Oula"
PERFORMER "Clifford Thornton"
INDEX 00 21:55:41
INDEX 01 22:02:55
TRACK 04 AUDIO
TITLE "Kevin (The Theme)"
PERFORMER "Clifford Thornton"
INDEX 00 26:42:41
INDEX 01 26:46:12
TRACK 05 AUDIO
TITLE "Exposure"
PERFORMER "Clifford Thornton"
INDEX 00 27:04:17
INDEX 01 27:07:74
TRACK 06 AUDIO
TITLE "Uhuru"
PERFORMER "Clifford Thornton"
INDEX 00 37:09:30
INDEX 01 37:17:12
TRACK 07 AUDIO
TITLE "'O.C.T.'"
PERFORMER "Clifford Thornton"
INDEX 00 45:41:41
INDEX 01 45:45:23
TRACK 08 AUDIO
TITLE "The Wake (complete version)"
PERFORMER "Clifford Thornton"
INDEX 00 50:11:60
INDEX 01 50:15:42
TRACK 09 AUDIO
TITLE "Babe's Dilemma"
PERFORMER "Clifford Thornton"
INDEX 00 64:25:57
INDEX 01 64:29:39
TRACK 10 AUDIO
TITLE "'O.C.T.' (alternate take)"
PERFORMER "Clifford Thornton"
INDEX 00 69:35:38
INDEX 01 69:39:20
 
Состав
Clifford Thornton — Trombone (Valve)
Edward Avent — Cornet
Joe McPhee — Trumpet
Sonny King — Alto Saxophone
Karl Berger — Vibraphone
Don Moore — Bass
Jimmy Garrison — Bass
Tyrone Crabb — Bass
Harold Avent — Drums
Any questions -> support@pro-jazz.com. По всем вопросам пишите -> support@pro-jazz.com
11:19
172
Нет комментариев. Ваш будет первым!