Поиск

2022 Triosence - Giulia {Sony Music, Masterworks} [24-96]

2022 Triosence - Giulia {Sony Music, Masterworks} [24-96]
Стили:
Дата издания диска:
4 февраля 2022
Издатель (лейбл):
Носитель:
WEB
Формат:
PCM
Тип рипа:
tracks
Контейнер:
FLAC (*.flac)
Количество каналов:
2.0
Разрядность/ЧД:
24/96
Битрейт аудио:
lossless
Наличие сканов:
буклет pdf

01. Odd Times  05:15
02. Little Big Steps (feat. Paolo Fresu)  06:19
03. Armando's Farewell  05:39
04. Squirrel's Rock  05:27
05. Giulia  05:31
06. Your Nearness (feat. Paolo Fresu)  06:15
07. Needless to Say (...a Tribute to Bill Evans)  04:42
08. Ambiguity  04:44
09. If I Only Knew  04:55
10. Quiet Sense (feat. Paolo Fresu)  04:43
11. No Risk, No Fun  03:25

Состав:
  • Bernhard Schüler, piano
  • Omar Rodriguez Calvo, double bass
  • Tobias Schulte, drums, percussion
Лог проверки качества
foobar2000 1.4.2 / Dynamic Range Meter 1.1.1
log date: 2022-02-04 16:53:42
--------------------------------------------------------------------------------
Analyzed: Bernhard SchГјler, Omar Rodriguez Calvo, Tobias Schulte, Paolo Fresu / Giulia (1-3)
          Bernhard SchГјler, Omar Rodriguez Calvo, Tobias Schulte / Giulia (4-11)
--------------------------------------------------------------------------------
DR         Peak         RMS     Duration Track
--------------------------------------------------------------------------------
DR9       -0.51 dB   -14.15 dB      6:19 02-Little Big Steps
DR10      -0.51 dB   -13.90 dB      6:16 06-Your Nearness
DR10      -0.51 dB   -13.08 dB      4:44 10-Quiet Sense
DR9       -0.50 dB   -12.70 dB      5:16 01-Odd Times
DR8       -0.51 dB   -11.99 dB      5:39 03-Armando's Farewell
DR8       -0.50 dB   -10.27 dB      5:28 04-Squirrel's Rock
DR10      -0.51 dB   -13.61 dB      5:31 05-Giulia
DR9       -0.51 dB   -12.26 dB      4:43 07-Needless to Say (...a Tribute to Bill Evans)
DR8       -0.49 dB   -11.12 dB      4:45 08-Ambiguity
DR10      -0.51 dB   -13.11 dB      4:55 09-If I Only Knew
DR8       -0.50 dB   -11.22 dB      3:26 11-No Risk, No Fun
--------------------------------------------------------------------------------
Number of tracks:  11
Official DR value: DR9
Samplerate:        96000 Hz
Channels:          2
Bits per sample:   24
Bitrate:           2491 kbps
Codec:             FLAC
================================================================================
Приватный:
Нет (DHT включён)
Размер:
985.82 Мб (1,033,712,254 байт) » файлов: 14
Участники:
0 раздают, 0 качают (0 участников всего)
Внешние участники:
8 раздают, 2 качают (10 участников всего) [ Обновить ]
13:20
539
Нет комментариев. Ваш будет первым!