Поиск

2022 Jessica de Boer - Grow {Challenge} [24-96]

2022 Jessica de Boer - Grow {Challenge} [24-96]
Стили:
Дата издания диска:
4 февраля 2022
Издатель (лейбл):
Носитель:
WEB
Формат:
PCM
Тип рипа:
tracks
Контейнер:
FLAC (*.flac)
Количество каналов:
2.0
Разрядность/ЧД:
24/96
Битрейт аудио:
lossless
Время звучания:
00:49:54
Наличие сканов:
только обложка

Треклист:

01. Prologue  01:03
02. Limitless  03:50
03. Discontented  04:16
04. Inspiration  05:13
05. Oak Tree  06:18
06. Harvest  05:24
07. Young Leaf  04:24
08. Growing Courage  01:19
09. Courage  06:11
10. Share  05:48
11. Seasons  06:05

Состав:
  • Jessica de Boer, vocals
  • Eric Brugmans, guitars
  • Manuel Wouthuysen, keyboards
  • Thimo Gijezen, double bass
  • Mees Siderius, drums
  • Yannick van ter Beek, percussion
  • Manon Nijenhuis, backing vocals
  • Noël van de Wiel, backing vocals
Доп. инфо:

Джессика де Бур "Grow - мой первый альбом. В некотором смысле, выпуск этого альбома - это исполнение того, о чем я пою, предвещающее новый сезон. Я смотрю назад, вперед и на мир вокруг меня. Так что это не только обо мне, это обо всех нас. Альбом о становлении, росте (взрослении), доверии и тоске. Тоска по чему-то, что обязательно придет".

Джессика де Бур принадлежит к новому поколению голландских джазовых певиц. Она выделяется своим обезоруживающим и повествовательным стилем. Во время учебы в Утрехтской консерватории, которую она окончила в 2019 году с отличием, она влюбилась в богатые гармонии и свободу джаза. Вскоре она начала писать собственные композиции; легкий, красочный джаз с гибкими мелодическими линиями и намеком на мировую музыку. Вдохновленная природой, людьми, звуками и верой, она не боится рассказать свою историю. Ее лирика в обезоруживающей манере выражает важные темы, понятные каждому. 8203;

Музыкальная карьера Джессики привела ее к выступлениям в самых разных местах, включая North Sea Jazz Festival и Middelheim Jazz (с хором Matthew Herbert Brexit Bigband), а также Tivoli de Helling.

https://www.highresaudio.com/en/album/view/9nqsqh/jessica-de-boer-grow

Лог проверки качества
foobar2000 1.4.2 / Dynamic Range Meter 1.1.1
log date: 2022-02-04 16:41:29
--------------------------------------------------------------------------------
Analyzed: Jessica de Boer / Grow
--------------------------------------------------------------------------------
DR         Peak         RMS     Duration Track
--------------------------------------------------------------------------------
DR16      -0.50 dB   -23.61 dB      1:04 01-Prologue
DR10      -0.50 dB   -13.70 dB      3:50 02-Limitless
DR9       -0.50 dB   -10.54 dB      4:17 03-Discontented
DR10      -0.50 dB   -12.32 dB      5:14 04-Inspiration
DR11      -0.50 dB   -14.10 dB      6:19 05-Oak Tree
DR9       -0.50 dB   -11.84 dB      5:24 06-Harvest
DR11      -0.50 dB   -14.55 dB      4:24 07-Young Leaf
DR12      -0.50 dB   -15.55 dB      1:20 08-Growing Courage
DR9       -0.50 dB   -11.87 dB      6:12 09-Courage
DR11      -0.50 dB   -14.19 dB      5:48 10-Share
DR9       -0.50 dB   -11.37 dB      6:06 11-Seasons
--------------------------------------------------------------------------------
Number of tracks:  11
Official DR value: DR11
Samplerate:        96000 Hz
Channels:          2
Bits per sample:   24
Bitrate:           2801 kbps
Codec:             FLAC
================================================================================
По всем вопросам пишите личное сообщение пользователю M0p94ok.
09:40
52
Нет комментариев. Ваш будет первым!