Поиск

2022 Fabio Gouvea - Zeit {u n i t} [24-96]

2022 Fabio Gouvea - Zeit {u n i t} [24-96]
Дата издания диска:
4 февраля 2022
Носитель:
WEB
Формат:
PCM
Тип рипа:
tracks
Контейнер:
FLAC (*.flac)
Количество каналов:
2.0
Разрядность/ЧД:
24/96
Битрейт аудио:
lossless
Время звучания:
00:54:40
Наличие сканов:
только обложка

Треклист:

01 - Malas Prontas (02:48)
02 - Angustia (01:44)
03 - Zeit (02:45)
04 - Fadodio (01:37)
05 - Hildebrand (03:55)
06 - Pitangueira (02:52)
07 - Nuvem Negra (05:09)
08 - Mir (03:45)
09 - Desenchavido (02:37)
10 - Radiante (00:25)
11 - Petricor (03:00)
12 - Quarentine (02:37)
13 - RecomeCo (03:02)
14 - Bjendary (03:26)
15 - Revoada (07:17)
16 - Poros (04:00)
17 - Barnabes (03:37)

Лог проверки качества
foobar2000 1.4.2 / Dynamic Range Meter 1.1.1
log date: 2022-02-04 16:31:47
--------------------------------------------------------------------------------
Analyzed: Fabio Gouvea / Zeit
--------------------------------------------------------------------------------
DR         Peak         RMS     Duration Track
--------------------------------------------------------------------------------
DR11      -0.12 dB   -12.69 dB      2:48 01-Malas Prontas
DR10      -0.12 dB   -13.95 dB      1:44 02-AngГєstia
DR10      -0.12 dB   -12.41 dB      2:45 03-Zeit
DR11      -0.12 dB   -12.89 dB      1:37 04-FadГіdio
DR10      -0.12 dB   -12.21 dB      3:56 05-Hildebrand
DR9       -0.12 dB   -11.83 dB      2:53 06-Pitangueira
DR11      -0.12 dB   -13.03 dB      5:09 07-Nuvem Negra
DR11      -0.12 dB   -13.30 dB      3:45 08-Mir
DR10      -0.12 dB   -12.32 dB      2:38 09-Desenchavido
DR7       -0.12 dB   -13.39 dB      0:25 10-Radiante
DR11      -0.12 dB   -13.10 dB      3:01 11-Petricor
DR10      -0.12 dB   -14.42 dB      2:37 12-Quarentine
DR10      -0.12 dB   -12.13 dB      3:02 13-Recomeço
DR11      -0.12 dB   -13.64 dB      3:26 14-Bjendary
DR12      -0.12 dB   -14.17 dB      7:18 15-Revoada
DR11      -0.12 dB   -12.77 dB      4:01 16-Poros
DR10      -0.12 dB   -11.73 dB      3:38 17-BarnabГ©s
--------------------------------------------------------------------------------
Number of tracks:  17
Official DR value: DR10
Samplerate:        96000 Hz
Channels:          2
Bits per sample:   24
Bitrate:           2549 kbps
Codec:             FLAC
================================================================================
По всем вопросам пишите личное сообщение пользователю M0p94ok.
23:02
57
Нет комментариев. Ваш будет первым!