Поиск

2022 Simon Phillips - Protocol V {Phantom} [24-96]

2022 Simon Phillips - Protocol V {Phantom} [24-96]
Стили:
Дата записи диска:
Carbonite Sound; Tritone Studios
Дата издания диска:
4 февраля 2022
Носитель:
WEB
Формат:
PCM
Тип рипа:
tracks
Контейнер:
FLAC (*.flac)
Количество каналов:
2.0
Разрядность/ЧД:
24/96
Битрейт аудио:
lossless
Время звучания:
00:52:27
Наличие сканов:
только обложка

Треклист:

1. Jagannath  06:50
2. Isosceles  06:43
3. Nyanga  07:46
4. Undeviginti  06:48
5. When the Cat's Away  06:12
6. Dark Star  06:43
7. The Long Road Home  11:24

Состав:
  • Bass [Xotic, F. Bass And Yamaha] – Ernest Tibbs
  • Engineer [Additional Recording Engineered By] – Talley Sherwood
  • Engineer [Engineered By] – Jason Mariani
  • Guitar [Kiesel Guitars] – Alex Sill
  • Keyboards [Nord Keyboards, Roland Products], Software Instrument [Spectrasonic Software] – Otmaro Ruiz
  • Mastered By – Jason Mariani
  • Mixed By – Simon Phillips
  • Producer, Composer – Simon Phillips
  • Saxophone [Vintage Selmer Saxophones] – Jacob Scesney
Лог проверки качества
foobar2000 1.4.2 / Dynamic Range Meter 1.1.1
log date: 2022-02-04 15:42:00
--------------------------------------------------------------------------------
Analyzed: Simon Phillips / Protocol V
--------------------------------------------------------------------------------
DR         Peak         RMS     Duration Track
--------------------------------------------------------------------------------
DR7       -1.00 dB    -9.64 dB      6:51 01-Jagannath
DR8       -1.00 dB   -10.14 dB      6:43 02-Isosceles
DR8       -1.00 dB   -10.17 dB      7:47 03-Nyanga
DR8       -1.00 dB   -10.03 dB      6:48 04-Undeviginti
DR8       -1.00 dB   -10.16 dB      6:12 05-When the Cat's Away
DR8       -1.00 dB   -11.02 dB      6:44 06-Dark Star
DR8       -1.00 dB   -10.28 dB     11:25 07-The Long Road Home
--------------------------------------------------------------------------------
Number of tracks:  7
Official DR value: DR8
Samplerate:        96000 Hz
Channels:          2
Bits per sample:   24
Bitrate:           2853 kbps
Codec:             FLAC
================================================================================
По всем вопросам пишите личное сообщение пользователю M0p94ok.
22:42
63
Нет комментариев. Ваш будет первым!