Поиск

2022 Holger Skepeneit - Skepeneit: 15 Fables {Willowhayne} [24-192]

2022 Holger Skepeneit - Skepeneit: 15 Fables {Willowhayne} [24-192]
Стили:
Дата записи диска:
6 марта 2021
Место записи:
Turner Sims Concert Hall, University of Southampton
Дата издания диска:
4 февраля 2022
Номер по каталогу:
WHR069
Носитель:
WEB
Формат:
PCM
Тип рипа:
tracks
Контейнер:
FLAC (*.flac)
Количество каналов:
2.0
Разрядность/ЧД:
24/192
Битрейт аудио:
lossless
Время звучания:
00:50:15
Наличие сканов:
только обложка

Треклист:

01. Butterfly Prelude  02:33
02. Moondrunk  02:23
03. Aeolian Chant  03:37
04. Lough Abisdealy  03:49
05. Overfalls  03:30
06. NGC 6611  04:10
07. Letter from Molene  03:38
08. She May Smile  03:35
09. The Uncertainty Principle  02:48
10. Callisto  04:11
11. Into the Scriptorium  04:09
12. Afternoon Stillness  02:27
13. Byzantine Waltz  03:31
14. Idle Pleasures  02:36
15. The Caverns of Helm's Deep  03:12

Состав:
  • Holger Skepeneit — piano
  • Mixed at Oakbeam Studios by Holger Skepeneit
  • Mastered by Mark Hartt-Palmer at Willowhayne Records
Доп. инфо:

В долгожданном продолжении "Музыки для фортепиано и струнных" Хольгер Скепенайт с легкостью путешествует по стилям, векам и музыкальным традициям. Произведения, всегда звучащие его собственным, неповторимым голосом, ведут в часто неожиданные, но всегда приятные места и обладают легкой эстетической привлекательностью, не будучи поверхностными. Хольгер Скепенайт - востребованный пианист, клавишник, композитор и музыкальный руководитель. За свою карьеру он выступал и записывался с такими исполнителями, как Katrina and the Waves, Vanity Fare, Brian Poole and the Tremoloes, Ray Lewis and the Drifters, Pete Cunnah (D-Ream) и многими другими. Среди ярких моментов карьеры - участие в качестве пианиста/композитора и аранжировщика в альбоме №1 Джеки Чунгса Private Corner (мультиплатиновый статус), выступление на BBC Proms in the Park и победа в Вестминстерской премии за импровизацию. Он также написал музыку к фильму Майка МакКензиса Belonging, удостоенному награды, и много писал для телевидения и рекламы. Его последняя книга Balkan Bash (серия композиций с македонским/болгарским колоритом и учебник по игре на нечетном метре) была опубликована издательством Chili Notes в 2017 году. В настоящее время Хольгер является экзаменатором Trinity по року и поп-музыке и преподает в ряде университетов и музыкальных колледжей, включая Лондонский колледж музыки и Институт современного музыкального исполнительства.

Лог проверки качества
foobar2000 1.4.2 / Dynamic Range Meter 1.1.1
log date: 2022-02-04 17:00:34
--------------------------------------------------------------------------------
Analyzed: Holger Skepeneit / Skepeneit: 15 Fables
--------------------------------------------------------------------------------
DR         Peak         RMS     Duration Track
--------------------------------------------------------------------------------
DR11      -0.67 dB   -16.13 dB      2:34 01-Butterfly Prelude
DR10      -0.89 dB   -16.27 dB      2:23 02-Moondrunk
DR11      -0.10 dB   -15.53 dB      3:38 03-Aeolian Chant
DR12      -0.73 dB   -16.80 dB      3:49 04-Lough Abisdealy
DR10      -0.26 dB   -13.60 dB      3:31 05-Overfalls
DR11      -0.85 dB   -15.83 dB      4:10 06-NGC 6611
DR12      -0.24 dB   -16.43 dB      3:39 07-Letter from Molene
DR11      -0.75 dB   -13.62 dB      3:35 08-She May Smile
DR10      -0.97 dB   -13.59 dB      2:48 09-The Uncertainty Principle
DR11      -0.62 dB   -15.02 dB      4:11 10-Callisto
DR12      -0.86 dB   -18.09 dB      4:09 11-Into the Scriptorium
DR11      -1.08 dB   -16.33 dB      2:27 12-Afternoon Stillness
DR10      -0.53 dB   -14.36 dB      3:32 13-Byzantine Waltz
DR10      -0.25 dB   -13.69 dB      2:37 14-Idle Pleasures
DR12      -0.35 dB   -16.65 dB      3:13 15-The Caverns of Helm's Deep
--------------------------------------------------------------------------------
Number of tracks:  15
Official DR value: DR11
Samplerate:        192000 Hz
Channels:          2
Bits per sample:   24
Bitrate:           2800 kbps
Codec:             FLAC
================================================================================
По всем вопросам пишите личное сообщение пользователю M0p94ok.
15:24
65
Нет комментариев. Ваш будет первым!