Поиск

2022 Sean Fyfe - Late Night {Cellar Live} [24-96]

2022 Sean Fyfe - Late Night {Cellar Live} [24-96]
Стили:
Дата записи диска:
3 мая - 4 мая 2021
Место записи:
Planet Studios
Дата издания диска:
14 февраля 2022
Издатель (лейбл):
Носитель:
WEB
Формат:
PCM
Тип рипа:
tracks
Контейнер:
FLAC (*.flac)
Количество каналов:
2.0
Разрядность/ЧД:
24/96
Битрейт аудио:
lossless
Время звучания:
00:49:00
Наличие сканов:
только обложка

Треклист:

1. Happy  05:34
2. Late Night  06:32
3. Little Pants  08:10
4. Lush Life  04:11
5. Needful  06:50
6. Stella  07:00
7. To Wes  06:05
8. Validation  04:36

Состав:
  • Sean Fyfe — Piano
  • Sam Kirmayer — Guitar
  • Adrian Vedady — Bass
  • Andre White — Drums
  • Executive Producer: Cory Weeds
  • Produced by Sean Fyfe
  • Engineered by Juan Gomez
  • Mixed and mastered by Eli Krantzberg
Лог проверки качества
foobar2000 1.4.2 / Dynamic Range Meter 1.1.1
log date: 2022-02-04 17:12:01
--------------------------------------------------------------------------------
Analyzed: Sean Fyfe / Late Night
--------------------------------------------------------------------------------
DR         Peak         RMS     Duration Track
--------------------------------------------------------------------------------
DR11      -0.43 dB   -13.03 dB      5:34 01-Happy
DR11      -0.42 dB   -13.29 dB      6:33 02-Late Night
DR12      -0.42 dB   -14.32 dB      8:11 03-Little Pants
DR12      -0.53 dB   -17.33 dB      4:12 04-Lush Life
DR11      -0.42 dB   -13.67 dB      6:51 05-Needful
DR11      -0.47 dB   -13.05 dB      7:00 06-Stella
DR12      -0.42 dB   -13.76 dB      6:05 07-To Wes
DR10      -0.42 dB   -12.44 dB      4:36 08-Validation
--------------------------------------------------------------------------------
Number of tracks:  8
Official DR value: DR11
Samplerate:        96000 Hz
Channels:          2
Bits per sample:   24
Bitrate:           3208 kbps
Codec:             FLAC
================================================================================
По всем вопросам пишите личное сообщение пользователю M0p94ok.
18:56
68
Нет комментариев. Ваш будет первым!