Поиск

2022 Tome Iliev Sextet - Trinaiska {AMP Music} [24-48]

2022 Tome Iliev Sextet - Trinaiska {AMP Music} [24-48]
Место записи:
Hardstudios Winterthur
Дата издания диска:
4 февраля 2022
Номер по каталогу:
AT0106
Носитель:
WEB
Формат:
PCM
Тип рипа:
tracks
Контейнер:
FLAC (*.flac)
Количество каналов:
2.0
Разрядность/ЧД:
24/48
Битрейт аудио:
lossless
Время звучания:
00:44:46
Наличие сканов:
только обложка

Треклист:

1. Winti Buebli  06:42
2. The End Of The Beginning  06:39
3. PeCe  07:59
4. Waiting For The Ror-Bus  05:02
5. Oriental Babylon  05:00
6. Trinaiska  08:15
7. Bace Gorane  05:05

Состав:
  • Clarinet, Bass Clarinet – Tome Iliev
  • Double Bass – Jonas Künzli
  • Drums – Adrian Böckli
  • Guitar, Effects – Valentin Baumgartner
  • Mastered By – Frode Berg
  • Mixed By – Philippe Teissier Du Cros
  • Piano, Electric Piano, Electric Organ – François Lana (2)
  • Recorded By – Bojan Ugrinovski
  • Trombone – Florian Weiss (2)
Доп. инфо:

При поддержке Cassinelli-Vogel Stiftung
В память о Валентине Баумгартнере (Valentin Baumgartner) (1991-2021)
Этот альбом посвящен нашему гитаристу Валентину Баумгартнеру, который трагически погиб в результате несчастного случая во время пешего похода через несколько месяцев после записи альбома.

Лог проверки качества
foobar2000 1.4.2 / Dynamic Range Meter 1.1.1
log date: 2022-02-05 13:41:05
--------------------------------------------------------------------------------
Analyzed: Tome Iliev Sextet / Trinaiska
--------------------------------------------------------------------------------
DR         Peak         RMS     Duration Track
--------------------------------------------------------------------------------
DR9       -0.34 dB   -10.60 dB      6:43 01-Winti Buebli
DR9       -0.51 dB   -12.54 dB      6:40 02-The End Of The Beginning
DR9       -0.24 dB   -12.12 dB      8:00 03-PeCe
DR9       -0.38 dB   -11.58 dB      5:02 04-Waiting For The Ror-Bus
DR10       0.00 dB   -12.22 dB      5:01 05-Oriental Babylon
DR9       -0.07 dB   -11.34 dB      8:16 06-Trinaiska
DR9       -0.09 dB   -12.18 dB      5:05 07-Bace Gorane
--------------------------------------------------------------------------------
Number of tracks:  7
Official DR value: DR9
Samplerate:        48000 Hz
Channels:          2
Bits per sample:   24
Bitrate:           1742 kbps
Codec:             FLAC
================================================================================
По всем вопросам пишите личное сообщение пользователю M0p94ok.
12:24
50
Нет комментариев. Ваш будет первым!