Поиск

2000 Chie Ayado - Love (2020) {mimi-tab.} [24-96]

2000 Chie Ayado - Love (2020) {mimi-tab.} [24-96]
Стили:
Дата переиздания диска:
29 мая 2020
Носитель:
WEB
Формат:
PCM
Тип рипа:
tracks
Контейнер:
FLAC (*.flac)
Количество каналов:
2.0
Разрядность/ЧД:
24/96
Битрейт аудио:
lossless
Время звучания:
00:58:09
Наличие сканов:
только обложка
Треклист:

01. Blue Skies
02. The Rose
03. Moon River
04. The End Of The World
05. Day Tripper
06. His Eye Is On A Sparrow
07. Work Song
08. Leaving On A Jet Plane
09. Can't Help Falling In Love
10. By The Time I Get To Phoenix
11. Any Time
12. Just Squeeze Me
13. My Funny Valentine
14. Danny Boy
15. L-O-V-E
16. Love

Состав:
  • Bass – Tomokazu Sugimoto (трек№ 5, 8)
  • Guitar – Hiroki Miyano (трек№ 3)
  • Piano, Vocals – Chie Ayado
Лог проверки качества
foobar2000 1.6.8 / Dynamic Range Meter 1.1.1
log date: 2022-02-05 12:37:06
--------------------------------------------------------------------------------
Analyzed: 綾戸智恵 / LOVE
--------------------------------------------------------------------------------
DR         Peak         RMS     Duration Track
--------------------------------------------------------------------------------
DR9       -0.40 dB   -12.51 dB      2:30 01-Blue Skies
DR12      -0.40 dB   -17.61 dB      5:21 02-The Rose
DR12      -0.40 dB   -17.00 dB      2:00 03-Moon River
DR12      -0.40 dB   -17.25 dB      3:14 04-The End Of The World
DR10      -0.40 dB   -12.83 dB      2:34 05-Day Tripper
DR9       -0.40 dB   -14.48 dB      4:00 06-His Eye Is On A Sparrow
DR11      -0.40 dB   -13.19 dB      2:30 07-Work Song
DR11      -0.40 dB   -14.45 dB      6:22 08-Leaving On A Jet Plane
DR8       -0.40 dB   -11.74 dB      3:47 09-Can't Help Falling In Love
DR13      -0.40 dB   -17.71 dB      4:12 10-By The Time I Get To Phoenix
DR10      -0.40 dB   -12.85 dB      5:04 11-どんなときも
DR12      -0.40 dB   -15.85 dB      3:55 12-Just Squeeze Me
DR10      -0.40 dB   -14.44 dB      3:34 13-My Funny Valentine
DR10      -0.40 dB   -15.86 dB      2:54 14-Danny Boy
DR11      -0.40 dB   -14.10 dB      2:54 15-L-O-V-E
DR12      -0.40 dB   -18.06 dB      3:26 16-Love
--------------------------------------------------------------------------------
Number of tracks:  16
Official DR value: DR11
Samplerate:        96000 Hz
Channels:          2
Bits per sample:   24
Bitrate:           2367 kbps
Codec:             FLAC
===============================================================================
По всем вопросам пишите личное сообщение пользователю M0p94ok.
15:23
44
Нет комментариев. Ваш будет первым!