Поиск

2022 Steve Slagle - Ballads: Into the Heart of It {Panorama} [24-88.2]

2022 Steve Slagle - Ballads: Into the Heart of It {Panorama} [24-88.2]
Место записи:
Trading 8's Studio, New York City, NY, USA
Дата издания диска:
1 февраля 2022
Носитель:
WEB
Формат:
PCM
Тип рипа:
tracks
Контейнер:
FLAC (*.flac)
Количество каналов:
2.0
Разрядность/ЧД:
24/88,2
Битрейт аудио:
lossless
Время звучания:
01:03:21
Наличие сканов:
только обложка

Треклист:

01 - Blue in Green (05:09)
02 - Le Sucrier Velours (The Queen's Suite) (07:22)
03 - Reflections (feat. Randy Brecker) (08:35)
04 - My One and Only Love (03:51)
05 - Into the Heart of It (feat. Randy Brecker) (08:36)
06 - Kiss Lonely Goodbye (05:01)
07 - Si, See (06:28)
08 - If You Could See Me Now (07:35)
09 - The Four Margarets (03:54)
10 - Big Mac (feat. Randy Brecker) (Bonus Track) (06:48)

Состав:

with special guest Randy Brecker and some brilliant orchestrations by Richard Sussman Steve has Bruce Barth on piano,Ugonna Okegwo on bass and the great Jason Tiemann on drums.

recorded by Chris Sulit and mastered by David Darligton at Bass Hit Studios in fall of 2021 NYC

Лог проверки качества
foobar2000 1.4.2 / Dynamic Range Meter 1.1.1
log date: 2022-02-04 22:08:01
--------------------------------------------------------------------------------
Analyzed: Steve Slagle / Ballads: Into the Heart of It
--------------------------------------------------------------------------------
DR         Peak         RMS     Duration Track
--------------------------------------------------------------------------------
DR10      -0.70 dB   -12.16 dB      5:09 01-Blue in Green
DR12      -0.70 dB   -14.99 dB      7:23 02-Le Sucrier Velours (The Queen's Suite)
DR11      -0.70 dB   -14.17 dB      8:35 03-Reflections (feat. Randy Brecker)
DR9       -0.70 dB   -11.73 dB      3:51 04-My One and Only Love
DR11      -0.70 dB   -13.45 dB      8:36 05-Into the Heart of It (feat. Randy Brecker)
DR11      -0.70 dB   -13.40 dB      5:01 06-Kiss Lonely Goodbye
DR9       -0.70 dB   -12.04 dB      6:29 07-Si, See
DR11      -0.70 dB   -13.78 dB      7:35 08-If You Could See Me Now
DR7       -0.70 dB    -9.69 dB      3:54 09-The Four Margarets
DR11      -0.70 dB   -13.64 dB      6:49 10-Big Mac (feat. Randy Brecker) (Bonus Track)
--------------------------------------------------------------------------------
Number of tracks:  10
Official DR value: DR10
Samplerate:        88200 Hz
Channels:          2
Bits per sample:   24
Bitrate:           2673 kbps
Codec:             FLAC
================================================================================
По всем вопросам пишите личное сообщение пользователю M0p94ok.
12:18
53
Нет комментариев. Ваш будет первым!