Поиск

2022 Simon Höfele & Frank Dupree - Salted Caramel {Berlin Classics} [24-48]

2022 Simon Höfele & Frank Dupree - Salted Caramel {Berlin Classics} [24-48]
Стили:
Дата издания диска:
4 февраля 2022
Носитель:
WEB
Формат:
PCM
Тип рипа:
tracks
Контейнер:
FLAC (*.flac)
Количество каналов:
2.0
Разрядность/ЧД:
24/48
Битрейт аудио:
lossless
Время звучания:
01:04:28
Наличие сканов:
только обложка

01 - Rhapsody in Blue (Arr. for Trumpet-Flugelhorn and Piano) (13:53)
02 - Blue in Green (06:27)
03 - Trumpet Sonata (05:54)
04 - Almost Blue (06:02)
05 - 2nd Movement from Piano Concerto in F (Arr. for Trumpet, Jazz Trio and String Quartet) (08:24)
06 - Manteca (Arr. for four trumpets, piano, double bass and Drums) (04:02)
07 - Rondo for Lifey (Arr. for Trumpet and String Quartet) (01:29)
08 - Strasbourg-St. Denis (03:27)
09 - An American in Paris- Allegro grazioso (Arr. for Trumpet, Jazz Trio and String Quartet) (06:41)
10 - An American in Paris- Andante ma con ritmo deciso (Arr. for Trumpet, Jazz Trio and String Quartet) (03:11)
11 - An American in Paris- Allegro (Arr. for Trumpet, Jazz Trio and String Quartet) (04:52)

Состав:
  • Simon Höfele (trumpet/flugelhorn)
  • Frank Dupree (piano, celesta, bongo, arranger*)
  • Goldmund Quartett / Jakob Krupp (bass)
  • Meinhard "Obi" Jenne (drums)
Лог проверки качества
foobar2000 1.4.2 / Dynamic Range Meter 1.1.1
log date: 2022-02-02 18:42:21
--------------------------------------------------------------------------------
Analyzed: Simon Höfele  & Frank Dupree / Salted Caramel
--------------------------------------------------------------------------------
DR         Peak         RMS     Duration Track
--------------------------------------------------------------------------------
DR10      -1.12 dB   -15.34 dB     13:53 01-Rhapsody in Blue (Arr. for Trumpet/FlГјgelhorn and Piano)
DR14      -1.16 dB   -17.87 dB      6:27 02-Blue in Green
DR12      -1.13 dB   -16.71 dB      5:55 03-Trumpet Sonata
DR13      -1.11 dB   -17.04 dB      6:03 04-Almost Blue
DR14      -1.15 dB   -19.25 dB      8:25 05-2nd Movement from Piano Concerto in F (Arr. for Trumpet, Jazz Trio and String Quartet)
DR11      -1.12 dB   -14.16 dB      4:02 06-Manteca (Arr. for four trumpets, piano, double bass and Drums)
DR14      -1.16 dB   -19.26 dB      1:30 07-Rondo for Lifey (Arr. for Trumpet and String Quartet)
DR12      -1.06 dB   -15.18 dB      3:27 08-Strasbourg/St. Denis
DR13      -1.10 dB   -18.63 dB      6:42 09-An American in Paris: Allegro grazioso (Arr. for Trumpet, Jazz Trio and String Quartet)
DR11      -1.16 dB   -15.77 dB      3:12 10-An American in Paris: Andante ma con ritmo deciso (Arr. for Trumpet, Jazz Trio and String Quartet)
DR8       -1.12 dB   -12.87 dB      4:53 11-An American in Paris: Allegro (Arr. for Trumpet, Jazz Trio and String Quartet)
--------------------------------------------------------------------------------
Number of tracks:  11
Official DR value: DR12
Samplerate:        48000 Hz
Channels:          2
Bits per sample:   24
Bitrate:           1577 kbps
Codec:             FLAC
================================================================================
Приватный:
Нет (DHT включён)
Размер:
660.43 Мб (692,514,776 байт) » файлов: 12
Участники:
0 раздают, 0 качают (0 участников всего)
Внешние участники:
2 раздают, 1 качают (3 участников всего) [ Обновить ]
19:31
329
Нет комментариев. Ваш будет первым!