Поиск

2022 Sendecki & Spiegel - Solace {SKIP} [24-44.1]

2022 Sendecki & Spiegel - Solace {SKIP} [24-44.1]
Стили:
Дата издания диска:
4 апреля 2022
Номер по каталогу:
SKP 9153-1
Носитель:
WEB
Формат:
PCM
Тип рипа:
tracks
Контейнер:
FLAC (*.flac)
Количество каналов:
2.0
Разрядность/ЧД:
24/44,1
Битрейт аудио:
lossless
Наличие сканов:
только обложка

01. Ballerina  05:53
02. New York Streets  05:07
03. Contemplation  03:54
04. Furioso  06:29
05. Solace  05:16
06. Just A Few Chords  03:30
07. Don't Give Up  06:14
08. Still I Rise  04:19
09. Letter To Myself  05:32
10. Partita  04:24
11. Punk Talk  04:41
12. Exhibition  03:25
13. Little People  04:36

Состав:
  •     Drums, Percussion – Jürgen Spiegel
  •     Piano – Władysław Sendecki
  •     Producer – Jürgen Spiegel, Władysław Sendecki
Лог проверки качества
foobar2000 1.4.2 / Dynamic Range Meter 1.1.1
log date: 2022-02-02 18:41:54
--------------------------------------------------------------------------------
Analyzed: Sendecki & Spiegel / Solace
--------------------------------------------------------------------------------
DR         Peak         RMS     Duration Track
--------------------------------------------------------------------------------
DR10       0.00 dB   -11.82 dB      5:54 01-Ballerina
DR12       0.00 dB   -13.57 dB      5:08 02-New York Streets
DR12      -0.14 dB   -14.86 dB      3:55 03-Contemplation
DR9        0.00 dB   -10.83 dB      6:30 04-Furioso
DR12      -0.20 dB   -13.70 dB      5:17 05-Solace
DR9        0.00 dB   -11.51 dB      3:31 06-Just A Few Chords
DR11       0.00 dB   -13.93 dB      6:14 07-Don't Give Up
DR10       0.00 dB   -11.07 dB      4:20 08-Still I Rise
DR11      -0.18 dB   -13.68 dB      5:32 09-Letter To Myself
DR13      -0.04 dB   -15.70 dB      4:24 10-Partita
DR10      -0.17 dB   -12.14 dB      4:42 11-Punk Talk
DR10      -0.51 dB   -14.87 dB      3:26 12-Exhibition
DR11      -0.15 dB   -14.02 dB      4:37 13-Little People
--------------------------------------------------------------------------------
Number of tracks:  13
Official DR value: DR11
Samplerate:        44100 Hz
Channels:          2
Bits per sample:   24
Bitrate:           1422 kbps
Codec:             FLAC
================================================================================
13:28
290
Нет комментариев. Ваш будет первым!