Поиск

2022 Type_f - Type_f {u n i t} [24-96]

2022 Type_f - Type_f {u n i t} [24-96]
Дата издания диска:
2 февраля 2022
Носитель:
WEB
Формат:
PCM
Тип рипа:
tracks
Контейнер:
FLAC (*.flac)
Количество каналов:
2.0
Разрядность/ЧД:
24/96
Битрейт аудио:
lossless
Наличие сканов:
только обложка

Треклист:

01. Spanische Eröffnung  05:22
02. Not 13  06:18
03. Defending Man (Interlude)  01:08
04. Defending Man  05:13
05. 5over4  04:56
06. Kušeljazz  06:00
07. One of a Kind  05:31
08. Thoughts at 4:55 AM (In Memory of Laura)  05:52
09. Cocytus  01:54
10. Home (feat. Antonin Queloz)  03:56

Состав:
  • Sascha Frischknecht -drums
  • Claude Stucki – guitar
  • Mathieu Friz – keys
  • James Iwa – bass
Доп. инфо:

Type_f - швейцарский квартет звучит так, как будто джаз-фьюжн 70-х провел жаркую ночь с нео-соулом. С одной стороны, требовательные ритмы грува, странные временные подписи и напряженные четырехнотные звуки, почерпнутые из джаза. С другой стороны, похоть поп-музыки дышит похотливо. Вернее, пыхтит грешная соул-музыка. Как будто некий громовержец из Dragonball джемует с кусачим щенком в нью-йоркском клубе. Многообещающий молодой квартет добавляет свой собственный всплеск цвета в существующую джазовую сцену.

https://typef.net/

Лог проверки качества
foobar2000 1.4.2 / Dynamic Range Meter 1.1.1
log date: 2022-02-02 18:43:37
--------------------------------------------------------------------------------
Analyzed: Type_f / Type_f
--------------------------------------------------------------------------------
DR         Peak         RMS     Duration Track
--------------------------------------------------------------------------------
DR7       -0.45 dB   -10.11 dB      5:23 01-Spanische Eröffnung
DR8       -0.45 dB   -11.14 dB      6:18 02-Not 13
DR9       -0.45 dB   -12.88 dB      1:08 03-Defending Man (Interlude)
DR8       -0.45 dB   -10.79 dB      5:13 04-Defending Man
DR8       -0.45 dB   -10.82 dB      4:56 05-5over4
DR9       -0.45 dB   -11.76 dB      6:00 06-KuЕЎeljazz
DR8       -0.45 dB   -10.57 dB      5:32 07-One of a Kind
DR8       -0.45 dB   -10.85 dB      5:52 08-Thoughts at 4:55 AM (In Memory of Laura)
DR8       -0.45 dB   -11.42 dB      1:54 09-Cocytus
DR8       -0.45 dB   -10.95 dB      3:57 10-Home (feat. Antonin Queloz)
--------------------------------------------------------------------------------
Number of tracks:  10
Official DR value: DR8
Samplerate:        96000 Hz
Channels:          2
Bits per sample:   24
Bitrate:           2688 kbps
Codec:             FLAC
================================================================================
Download available for power users only.
To become a power user - read FAQ.
18:33
111
Нет комментариев. Ваш будет первым!