Поиск

2022 Søren Kristiansen & Thomas Fonnesbæk - The Touch {Storyville} [24-96]

2022 Søren Kristiansen & Thomas Fonnesbæk - The Touch {Storyville} [24-96]
Дата издания диска:
4 февраля 2022
Издатель (лейбл):
Носитель:
WEB
Формат:
PCM
Тип рипа:
tracks
Контейнер:
FLAC (*.flac)
Количество каналов:
2.0
Разрядность/ЧД:
24/96
Битрейт аудио:
lossless
Время звучания:
00:51:44
Наличие сканов:
только обложка

1. Soft Winds  05:13
2. Nigerian Marketplace  06:59
3. On The Trail  05:43
4. Love Ballade  04:54
5. Night Child  07:23
6. On Danish Shore  06:01
7. Wheatland  06:26
8. There Is No Greater Love  06:44
9. Hymn To Freedom  02:17

Состав:
  • Søren Kristiansen – piano
  • Thomas Fonnesbæk – bass
Лог проверки качества
foobar2000 1.4.2 / Dynamic Range Meter 1.1.1
log date: 2022-02-02 18:42:58
--------------------------------------------------------------------------------
Analyzed: Søren Kristiansen & Thomas Fonnesbæk / The Touch
--------------------------------------------------------------------------------
DR         Peak         RMS     Duration Track
--------------------------------------------------------------------------------
DR14      -0.22 dB   -16.99 dB      5:14 01-Soft Winds
DR13      -0.22 dB   -16.24 dB      7:00 02-Nigerian Marketplace
DR14      -0.22 dB   -15.60 dB      5:43 03-On the Trail
DR13      -0.22 dB   -17.73 dB      4:55 04-Love Ballade
DR13      -0.22 dB   -17.03 dB      7:23 05-Night Child
DR14      -0.22 dB   -16.69 dB      6:02 06-On Danish Shore
DR14      -0.23 dB   -17.67 dB      6:27 07-Wheatland
DR15      -0.22 dB   -17.13 dB      6:44 08-There Is No Greater Love
DR14      -0.22 dB   -19.03 dB      2:17 09-Hymn to Freedom
--------------------------------------------------------------------------------
Number of tracks:  9
Official DR value: DR14
Samplerate:        96000 Hz
Channels:          2
Bits per sample:   24
Bitrate:           1556 kbps
Codec:             FLAC
================================================================================
Приватный:
Нет (DHT включён)
Размер:
626.62 Мб (657,054,900 байт) » файлов: 10
Участники:
0 раздают, 0 качают (0 участников всего)
Внешние участники:
3 раздают, 1 качают (4 участников всего) [ Обновить ]
11:26
384
Нет комментариев. Ваш будет первым!