Поиск

2022 Manuel Linhares - Suspenso {Brandit Digital Media Services} [24-44.1]

2022 Manuel Linhares - Suspenso {Brandit Digital Media Services} [24-44.1]
Стили:
Место записи:
CARA studio; Vale de Lobos studio
Дата издания диска:
28 января 2022
Битрейт аудио:
lossless

Треклист:

1. Marcha Lenta 05:34
2. Intempérie 04:48
3. Isolation 4 06:22
4. Oxigénio 04:40
5. Lamento 07:18
6. Jogo de Sombras 05:33
7. Sentimental Illness 05:19
8. Dança Macabra 06:02
9. Suspended 05:34

Состав:
  • Manuel Linhares — Vocals, Compositon and Lyrics
  • António Loureiro — Arrangement, Music Production, Synthesizers, electric Bass (Marcha Lenta), composition (Oxigénio) and Drums
  • Guillermo Klein — Arrangement (Jogo de Sombras)
  • Paulo Barros — Piano
  • José Carlos Barbosa — Bass
  • David Binney — Alto Saxophone
  • Frederico Heliodoro — Electric Bass (Intempérie)
  • Rubinho Antunes — Trumpet and Flughelhorn
  • Alexandre Andrés — Flute
  • Hugo Raro — Fender Rhodes
  • João Pedro Brandão — Alto Saxophone
  • Rui Teixeira — Baritone Saxophone
  • José Pedro Coelho — Tenor Saxophone
  • Hugo Ciríaco — Tenor Saxophone
  • Andreia Santos — Trombone
  • Daniel Dias — Trombone
  • Coreto Porta Jazz:
  • Hugo Raro — Piano
  • AP — Guitar
  • José Carlos Barbosa — Bass
  • José Marrucho — Drums
  • João Pedro Brandão — Alto Saxophone
  • José Pedro Coelho — Tenor Saxophone
  • Hugo Ciríaco — Tenor Saxophone
  • Rui Teixeira — Baritone Saxophone
  • Susana Santos Silva — Trumpet
  • Ricardo Formoso — Flugelhorn
  • Andreia Santos — Trombone
  • Daniel Dias — Trombone
  • Recorded by Nuno Couto and Suse Ribeiro.
  • Mixed by Ricardo Mosca
  • Mastered by Carlos Freitas — ClassicmastersUSA
Лог проверки качества
foobar2000 1.4.2 / Dynamic Range Meter 1.1.1
log date: 2022-02-02 18:40:12
--------------------------------------------------------------------------------
Analyzed: Manuel Linhares / Suspenso
--------------------------------------------------------------------------------
DR         Peak         RMS     Duration Track
--------------------------------------------------------------------------------
DR8       -0.35 dB   -10.25 dB      5:35 01-Marcha Lenta
DR8       -0.12 dB   -10.34 dB      4:48 02-IntempГ©rie
DR8       -0.28 dB   -10.28 dB      6:23 03-Isolation 4
DR9       -0.35 dB   -11.23 dB      4:40 04-OxigГ©nio
DR8       -0.16 dB   -10.06 dB      7:19 05-Lamento
DR8       -0.37 dB   -10.61 dB      5:33 06-Jogo de Sombras
DR8       -0.41 dB   -11.68 dB      5:20 07-Sentimental Illness
DR8       -0.27 dB   -11.15 dB      6:02 08-Dança Macabra
DR8       -0.36 dB   -11.28 dB      5:35 09-Suspended
--------------------------------------------------------------------------------
Number of tracks:  9
Official DR value: DR8
Samplerate:        44100 Hz
Channels:          2
Bits per sample:   24
Bitrate:           1475 kbps
Codec:             FLAC
================================================================================
Any questions - support@pro-jazz.com
To become a power user - read FAQ.
12:35
116
Нет комментариев. Ваш будет первым!