Поиск

2022 Masha Bijlsma - Interaction {JazzJazz} [24-44.1]

2022 Masha Bijlsma - Interaction {JazzJazz} [24-44.1]
Стили:
Дата издания диска:
4 февраля 2022
Номер по каталогу:
JJ51024
Носитель:
WEB
Формат:
PCM
Тип рипа:
tracks
Контейнер:
FLAC (*.flac)
Количество каналов:
2.0
Разрядность/ЧД:
24/44,1
Битрейт аудио:
lossless
Время звучания:
00:52:31
Наличие сканов:
только обложка

Треклист:

01. Talking to the Sun  05:39
02. One and Five  05:09
03. Interlude 3  01:11
04. A Timeless Place  06:28
05. African Roots in Jazz (Interaction)  08:34
06. Strollin'  05:41
07. Interlude 2  01:17
08. Go to Hell  07:28
09. What Are You Doing the Rest of Your Life  06:19
10. Yummy Mummy  04:42

Состав:
  • Masha Bijlsma zang,
  • Bart van Lier trombone,
  • Tony Lakatos tenorsaxofoon,
  • Martin Sasse piano,
  • Martin Gjakonovski contrabas,
  • Dries Bijlsma drums
Доп. инфо:

Есть вокалисты, с которыми сразу возникает ощущение, что все в порядке: никаких странных выходок, никакого шумоподавления, просто хорошее пение обеими ногами в джазовой традиции. Маша Бийльсма из Сильвольде в Ахтерхуке - именно такая певица. Вместе с ней вы почувствуете историю таких икон, как Билли Холидей, Эбби Линкольн, Кармен МакРей и Кассандра Уилсон. Линкольн - ее великий пример, и нет ни одного вокалиста в низких странах, который бы исполнял ее произведения с большей страстью. Так, ее новый альбом начинается с прекрасной "Talking to the Sun", песни, которая когда-то вызвала фурор во всем мире.

У Бийльсмы приятный полный голос, в котором то тут, то там проскальзывают нотки грубости. Ее музыкальный стиль основан на настоящем джазе. Ритм-секция с пианистом Мартином Сассе, контрабасистом Мартином Гьяконовски и барабанщиком Дрисом Бийлсма звучит приятно и плотно. На переднем крае мы находим таких старых знакомых, как тромбонист Барт ван Льер и саксофонист Тони Лакатос. Репертуар обеспечивают такие музыканты, как Джаспер ван 'т Хоф, Джимми Роулз, Роб ван ден Брук и Мишель Легран. Ван Лиер предлагает две композиции, а Лакатос - заключительную часть. Половину произведений Бийльсма снабдил собственными текстами.

Альбом является данью уважения двум умершим участникам группы: контрабасисту Хенку де Лигту и вышеупомянутому Ван ден Бруку. Их аранжировкам отведено почетное место в этой постановке. Великолепна интерпретация Бийлсмой классической "The Peacocks", где она не совершает ошибку, теряя себя в технических турах де форс, но обеспечивает прекрасную экспозицию, используя текст песни в качестве отправной точки. Свободные импровизации с общей ведущей ролью тромбониста Барта ван Лира можно найти в двух "Интерлюдиях". Более чем особенным является исполнение композиции "Африканские корни в джазе", написанной покойным Ван ден Бруком, в которой Бийлсма увлекательно раскрывает свои вокальные способности. Песня создана специально для нее и имеет тот типичный земной характер, который также характерен для музыки ее ролевой модели Линкольна.

Еще одним ярким моментом является мощное видение Бийлсмой "Strollin" Чарльза Мингуса, в котором блюзу отведено много места. Страстным является ее исполнение песни "Go to Hell", когда-то увековеченной великой Ниной Симоне. Тенор-саксофонист Лакатос исполняет блестящее соло. Также уместно закрыть альбом немного меланхоличной композицией Мишеля Леграна "What Are You Doing the Rest of Your Life", музыкальным созерцанием, которое плавно перетекает в легкомысленную "Yummy Mummy". В конце концов, жизнь - это не сплошной мрак и уныние. С альбомом "Interaction" Бийлсма выпустил альбом, который, безусловно, заслуживает международного внимания.

Лог проверки качества
foobar2000 1.4.2 / Dynamic Range Meter 1.1.1
log date: 2022-02-04 17:19:29
--------------------------------------------------------------------------------
Analyzed: Masha Bijlsma / Interaction
--------------------------------------------------------------------------------
DR         Peak         RMS     Duration Track
--------------------------------------------------------------------------------
DR11      -0.10 dB   -12.30 dB      5:40 01-Talking to the Sun
DR11      -0.10 dB   -13.53 dB      5:10 02-One and Five
DR10      -1.31 dB   -16.00 dB      1:11 03-Interlude 3
DR13      -0.10 dB   -15.33 dB      6:29 04-A Timeless Place
DR10      -0.10 dB   -12.53 dB      8:34 05-African Roots in Jazz (Interaction)
DR11      -0.10 dB   -13.21 dB      5:42 06-Strollin'
DR12      -0.10 dB   -16.72 dB      1:18 07-Interlude 2
DR10      -0.10 dB   -11.13 dB      7:29 08-Go to Hell
DR11      -0.10 dB   -14.12 dB      6:20 09-What Are You Doing the Rest of Your Life
DR11      -0.10 dB   -12.80 dB      4:42 10-Yummy Mummy
--------------------------------------------------------------------------------
Number of tracks:  10
Official DR value: DR11
Samplerate:        44100 Hz
Channels:          2
Bits per sample:   24
Bitrate:           1575 kbps
Codec:             FLAC
================================================================================
По всем вопросам пишите личное сообщение пользователю M0p94ok.
20:48
69
Нет комментариев. Ваш будет первым!