Поиск

2022 Ryan Oliver - With Strings {Cellar Live} [24-96]

2022 Ryan Oliver - With Strings {Cellar Live} [24-96]
Стили:
Дата записи диска:
31 июля 2021
Место записи:
The Warehouse Studios
Дата издания диска:
4 февраля 2022
Издатель (лейбл):
Носитель:
WEB
Формат:
PCM
Тип рипа:
tracks
Контейнер:
FLAC (*.flac)
Количество каналов:
2.0
Разрядность/ЧД:
24/96
Битрейт аудио:
lossless
Наличие сканов:
только обложка

01. The Ballad Of Buffalo Bill  07:27
02. For You  07:26
03. Blues For Josie Rose  06:07
04. MacBeth  06:33
05. Tango For Astor  05:40
06. Somewhere Over The Rainbow  04:09
07. Eddie  04:40
08. Shorter Mornings  06:51
09. Arrival  05:19
10. Walk On Up The Road  03:18

Состав:
  • Ryan Oliver – tenor saxophone
  • Bernie Senensky – piano
  • Neil Swainson – bass
  • Terry Clarke – drums
  • Violin 1: Andrea Siradze, Colleen Venables, Elyse Jacobson, Llowyn Ball
  • Violin 2: Ken Lin, Molly MacKinnon, Jitendra Beairsto, Madeline Hocking
  • Viola: Genevieve MacKay, John Kastelic
  • Cello: Finn Manniche, Doug Gorkoff
  • Arrangements by Mark Crawford
  • Engineered mixed and mastered by Sheldon Zaharko
Лог проверки качества
foobar2000 1.4.2 / Dynamic Range Meter 1.1.1
log date: 2022-02-04 17:15:54
--------------------------------------------------------------------------------
Analyzed: Ryan Oliver / With Strings
--------------------------------------------------------------------------------
DR         Peak         RMS     Duration Track
--------------------------------------------------------------------------------
DR11      -0.10 dB   -13.38 dB      7:27 01-The Ballad Of Buffalo Bill
DR13      -0.10 dB   -15.55 dB      7:26 02-For You
DR10      -0.10 dB   -12.50 dB      6:08 03-Blues For Josie Rose
DR10      -0.10 dB   -12.11 dB      6:33 04-MacBeth
DR11      -0.10 dB   -12.42 dB      5:41 05-Tango For Astor
DR12      -0.10 dB   -15.15 dB      4:09 06-Somewhere Over The Rainbow
DR10      -0.10 dB   -11.63 dB      4:41 07-Eddie
DR11      -0.10 dB   -13.57 dB      6:51 08-Shorter Mornings
DR12      -0.10 dB   -16.18 dB      5:19 09-Arrival
DR12      -0.10 dB   -14.80 dB      3:18 10-Walk On Up The Road
--------------------------------------------------------------------------------
Number of tracks:  10
Official DR value: DR11
Samplerate:        96000 Hz
Channels:          2
Bits per sample:   24
Bitrate:           2909 kbps
Codec:             FLAC
================================================================================
Приватный:
Нет (DHT включён)
Размер:
1.21 Гб (1,300,091,582 байт) » файлов: 11
Участники:
0 раздают, 0 качают (0 участников всего)
Внешние участники:
1 раздают, 0 качают (1 участников всего) [ Обновить ]
01:12
404
Нет комментариев. Ваш будет первым!