Поиск

2022 Martin Archer Trio - See You Soon or See You Sometime {Discus Music} [24-48]

2022 Martin Archer Trio - See You Soon or See You Sometime {Discus Music} [24-48]
Дата издания диска:
4 февраля 2022
Носитель:
WEB
Формат:
PCM
Тип рипа:
tracks
Контейнер:
FLAC (*.flac)
Количество каналов:
2.0
Разрядность/ЧД:
24/48
Битрейт аудио:
lossless
Наличие сканов:
только обложка

Треклист:

1. Rotten Star  08:30
2. Evabje  10:54
3. See You Soon or See You Sometime  15:29
4. Walt Blues  05:01
5. Chime Scene  05:28
6. Improvisation in Traditional Form  11:20

Состав:
  • Martin Archer — tenor and sopranino saxophones, saxello
  • Michael Bardon — double bass, cello
  • Walt Shaw — drums and percussion
Доп. инфо:

"От Сонни Роллинза, Альберта Эйлера, Орнетта Коулмана до Эвана Паркера и Стива Лейси - в составе трио были созданы классические записи. Этот альбом See You несет на себе груз истории". В критическом плане Мартин Арчер/Майкл Бардон/Уолт Шоу принимают вызов с головой, и к тому времени, когда ваши уши дойдут до финального трека, Improvisation In Traditional Form, я обещаю, что вы услышите превосходную спонтанную элегическую песню, которая затронет всех тех "мастеров импровизации", упомянутых выше, а также создаст достаточно пространства для формирования их собственных отчетливых линий языка." - Стив Дэй

Я уже много лет хотел записать трио - самую простую и в то же время самую требовательную конфигурацию для любого саксофониста - но никак не мог решить, кто должен быть остальными участниками. Только когда я услышал сольные работы Майкла, я понял, что его подход к басу в сочетании с фактурной игрой Уолта создадут ту основу, которую я искал. Я хотел создать трио, в котором саксофон мог бы жить в музыке изнутри - в отличие от солирующего героя. Однако я решил играть в основном на тенор-саксофоне (иногда дополняемом сопранино и сакселло), чтобы максимально усилить контраст между джазовыми линиями рожка и более абстрактной игрой других инструментов. Как бы то ни было, грандиозная концепция осталась в стороне, как только мы встретились, мы просто играли весь день, используя простые нотированные и графические партитуры, плюс некоторые идеи, генерируемые на месте. Мы надеемся, что вам понравятся получившиеся звуки. - Мартин Арчер.

Лог проверки качества
foobar2000 1.4.2 / Dynamic Range Meter 1.1.1
log date: 2022-02-04 17:26:24
--------------------------------------------------------------------------------
Analyzed: Martin Archer Trio / See You Soon or See You Sometime
--------------------------------------------------------------------------------
DR         Peak         RMS     Duration Track
--------------------------------------------------------------------------------
DR11      -0.30 dB   -14.64 dB      8:30 01-Rotten Star
DR14      -0.30 dB   -18.54 dB     10:55 02-Evabje
DR7       -0.30 dB   -11.59 dB     15:30 03-See You Soon or See You Sometime
DR9       -0.30 dB   -11.11 dB      5:02 04-Walt Blues
DR12      -0.30 dB   -17.60 dB      5:28 05-Chime Scene
DR8       -0.30 dB   -12.01 dB     11:20 06-Improvisation in Traditional Form
--------------------------------------------------------------------------------
Number of tracks:  6
Official DR value: DR10
Samplerate:        48000 Hz
Channels:          2
Bits per sample:   24
Bitrate:           1417 kbps
Codec:             FLAC
================================================================================
По всем вопросам пишите личное сообщение пользователю M0p94ok.
21:48
70
Нет комментариев. Ваш будет первым!