Поиск

2021 Unknown To Known - Portico {Unknown To Known} [24-44.1]

2021 Unknown To Known - Portico {Unknown To Known} [24-44.1]
Дата записи диска:
июль 2021
Место записи:
Portico Gallery, South London
Дата издания диска:
4 ноября 2021
Носитель:
WEB
Формат:
PCM
Тип рипа:
tracks
Контейнер:
FLAC (*.flac)
Количество каналов:
2.0
Разрядность/ЧД:
24/44,1
Битрейт аудио:
lossless
Время звучания:
00:24:34
Наличие сканов:
только обложка

Треклист:

1.Improvisation I 05:37
2.Improvisation II 06:57
3.Improvisation III 04:27
4.Improvisation IV 07:32

Состав:
  • Idris Rahman — Tenor saxophone, bass clarinet
  • Tamar Osborn — Baritone saxophone, clarinet, flute
  • Jihad Darwish — Double bass, electric bass
  • Yusuf Ahmed — Drums, percussion
  • Recorded by Yusuf Ahmed
  • Mixed and Mastered by Idris Rahman
Доп. инфо:

Импровизированные отрывки из нашей первой встречи в июле 2021 года.
Галерея Портико, Южный Лондон.

Эта группа является кульминацией творчества четырех музыкантов, каждый из которых участвовал в самых известных музыкальных коллективах современности, включая Стинга, Вана Моррисона, Анушку Шанкар, Wild Flower, Ill Considered, Collocutor, Акрама Хана, Деле Сосими, Сарати Корвара, Джой Крукса и других.

На деревянных духовых Идрис Рахман и Тамар Осборн сплетают мелодическую ткань этой музыки. Уже выпустив в дуэте альбом "Conversations", который Макс Рейнхардт из "Late Junction" на BBC назвал "откровением", их лирический подход изящно дополняет друг друга, играют ли они в унисон или контрапункт.

Джихад Дарвиш колеблется между ситаром, контрабасом и электробасом, обеспечивая мост от мелодических и гармонических миров к земным, пульсирующим, но чувствительным грувам, которые Юсуф Ахмед связывает вместе на барабанах и различных гибридных ударных инструментах.

Характер инструментария этой группы означает, что выступления могут быть полностью акустическими или усиленными. Это было сознательное решение, принятое при создании группы.

https://unknowntoknown.bandcamp.com/album/portico

Лог проверки качества
foobar2000 1.6.2 / Dynamic Range Meter 1.1.1
log date: 2022-02-04 19:22:10
--------------------------------------------------------------------------------
Analyzed: Unknown To Known / Portico
--------------------------------------------------------------------------------
DR         Peak         RMS     Duration Track
--------------------------------------------------------------------------------
DR10      -1.20 dB   -13.91 dB      5:37 01-Improvisation I
DR10      -1.20 dB   -13.43 dB      6:57 02-Improvisation II
DR8       -1.20 dB   -11.95 dB      4:28 03-Improvisation III
DR9       -1.20 dB   -12.22 dB      7:32 04-Improvisation IV
--------------------------------------------------------------------------------
Number of tracks:  4
Official DR value: DR9
Samplerate:        44100 Hz
Channels:          2
Bits per sample:   24
Bitrate:           1427 kbps
Codec:             FLAC
================================================================================
По всем вопросам пишите личное сообщение пользователю M0p94ok.
09:44
36
Нет комментариев. Ваш будет первым!