Поиск

2022 Larry Goldings, Peter Bernstein, Bill Stewart - Perpetual Pendulum {Smoke Sessions} [24-96]

2022 Larry Goldings, Peter Bernstein, Bill Stewart - Perpetual Pendulum {Smoke Sessions} [24-96]
Стили:
Дата записи диска:
15 июля - 16 июля 2021
Место записи:
Sear Sound Studio A, NYC
Дата издания диска:
25 марта 2022
Издатель (лейбл):
Битрейт аудио:
lossless

Состав:
  • Larry Goldings, Hammond B3 organ
  • Peter Bernstein, guitar
  • Bill Stewart, drums
  • Produced by Paul Stache and Damon Smith
  • Recorded, Mixed and Mastered by Chris Allen
  • Studio Assistant: Will Bennett
Лог проверки качества
foobar2000 1.6.6 / Dynamic Range Meter 1.1.1
log date: 2022-03-26 10:52:50
--------------------------------------------------------------------------------
Analyzed: Larry Goldings, Peter Bernstein, Bill Stewart / Perpetual Pendulum
--------------------------------------------------------------------------------
DR         Peak         RMS     Duration Track
--------------------------------------------------------------------------------
DR6       -1.45 dB    -9.67 dB      6:08 01-United
DR6       -1.45 dB    -9.65 dB      7:07 02-Let's Get Lots
DR7       -1.45 dB    -9.80 dB      5:03 03-Libra
DR9       -1.45 dB   -13.19 dB      5:29 04-Prelude
DR7       -1.45 dB   -11.26 dB      5:06 05-FU Donald
DR10      -1.45 dB   -14.26 dB      5:21 06-Come Rain or Come Shine
DR8       -1.65 dB   -10.89 dB      5:54 07-Little Green Men
DR9       -1.45 dB   -13.53 dB      5:36 08-Reflections in D
DR7       -1.45 dB    -9.67 dB      6:06 09-Perpetual Pendulum
DR6       -1.45 dB    -8.84 dB      5:26 10-Lurkers
DR8       -1.45 dB   -11.51 dB      7:43 11-Django
--------------------------------------------------------------------------------
Number of tracks:  11
Official DR value: DR7
Samplerate:        96000 Hz
Channels:          2
Bits per sample:   24
Bitrate:           2830 kbps
Codec:             FLAC
================================================================================
Приватный:
Нет (DHT включён)
Размер:
1.30 Гб (1,397,799,086 байт) » файлов: 13
Участники:
13 раздают, 1 качают (14 участников всего)
Внешние участники:
5 раздают, 1 качают (6 участников всего) [ Обновить ]
17:38
438
Нет комментариев. Ваш будет первым!