Поиск

1959 Art Blakey & The Jazz Messengers - At the Jazz Corner of the World, Vol. 1 (2021) {Music Manager} [24-48]

1959 Art Blakey & The Jazz Messengers - At the Jazz Corner of the World, Vol. 1 (2021) {Music Manager} [24-48]
Стили:
Дата переиздания диска:
22 июня 2021
Издатель (лейбл):
Битрейт аудио:
lossless

Состав:
  • Art Blakey – drums
  • Lee Morgan — trumpet
  • Hank Mobley — tenor saxophone
  • Bobby Timmons – piano
  • Jymie Merritt – bass
  • Pee Wee Marquette — announcer
Лог проверки качества
foobar2000 1.4.6 / Dynamic Range Meter 1.1.1
log date: 2021-09-22 01:54:53
--------------------------------------------------------------------------------
Analyzed: Art Blakey / At the Jazz Corner of the World
--------------------------------------------------------------------------------
DR         Peak         RMS     Duration Track
--------------------------------------------------------------------------------
DR10      -0.02 dB   -12.32 dB      9:30 01-Hipsippy Blues (Live)
DR10       0.00 dB   -12.11 dB      7:37 02-Justice (Live)
DR10      -0.21 dB   -12.92 dB      2:20 03-The Theme (Live)
DR11      -0.06 dB   -12.95 dB     10:31 04-Close Your Eyes (Live)
DR11      -0.03 dB   -13.13 dB      7:44 05-Just Coolin' (Live)
--------------------------------------------------------------------------------
Number of tracks:  5
Official DR value: DR10
Samplerate:        48000 Hz
Channels:          2
Bits per sample:   24
Bitrate:           1420 kbps
Codec:             FLAC
================================================================================
Приватный:
Нет (DHT включён)
Размер:
384.65 Мб (403,334,303 байт) » файлов: 9
Участники:
0 раздают, 0 качают (0 участников всего)
Внешние участники:
5 раздают, 2 качают (7 участников всего) [ Обновить ]
18:29
332
Нет комментариев. Ваш будет первым!