Поиск

1959 Art Blakey & The Jazz Messengers - At the Jazz Corner of the World, Vol. 2 (2021) {Music Manager} [24-48]

1959 Art Blakey & The Jazz Messengers - At the Jazz Corner of the World, Vol. 2 (2021) {Music Manager} [24-48]
Стили:
Дата переиздания диска:
22 июня 2021
Издатель (лейбл):
Битрейт аудио:
lossless

Состав:
  • Art Blakey – drums
  • Lee Morgan — trumpet
  • Hank Mobley — tenor saxophone
  • Bobby Timmons – piano
  • Jymie Merritt – bass
  • Pee Wee Marquette — announcer
Лог проверки качества
foobar2000 1.4.6 / Dynamic Range Meter 1.1.1
log date: 2021-09-22 01:55:10
--------------------------------------------------------------------------------
Analyzed: Art Blakey / At the Jazz Corner of the World
--------------------------------------------------------------------------------
DR         Peak         RMS     Duration Track
--------------------------------------------------------------------------------
DR11       0.00 dB   -13.32 dB      7:27 01-Chicken an' Dumplins (Live)
DR10       0.00 dB   -12.30 dB      6:41 02-M & M (Live)
DR12       0.00 dB   -14.21 dB      8:02 03-Hi-Fly (Live)
DR10       0.00 dB   -12.33 dB      9:16 04-The Theme (Live)
DR9        0.00 dB   -11.30 dB      8:12 05-Art's Revelation (Live)
--------------------------------------------------------------------------------
Number of tracks:  5
Official DR value: DR11
Samplerate:        48000 Hz
Channels:          2
Bits per sample:   24
Bitrate:           1489 kbps
Codec:             FLAC
================================================================================
Приватный:
Нет (DHT включён)
Размер:
420.42 Мб (440,842,179 байт) » файлов: 9
Участники:
1 раздают, 0 качают (1 участников всего)
Внешние участники:
--- [ Обновить ]
18:47
291
Нет комментариев. Ваш будет первым!