Поиск

2022 Jeremy Pelt - Soundtrack {HighNote} [24-48]

2022 Jeremy Pelt - Soundtrack {HighNote} [24-48]
Стили:
Дата издания диска:
25 марта 2022
Издатель (лейбл):
Битрейт аудио:
lossless

Состав:
  • Jeremy Pelt – trumpet
  • Chien Chien Lu – vibraphone
  • Victor Gould – piano & Fender Rhodes
  • Vicente Archer – bass
  • Allan Mednard – drums
  • Anne Drummond – flute (tracks 4 & 5)
  • Brittany Anjou – Mellotron (track 5), Moog Sub 37 (track 7)
Лог проверки качества
foobar2000 1.6.6 / Dynamic Range Meter 1.1.1
log date: 2022-03-27 12:15:07
--------------------------------------------------------------------------------
Analyzed: Jeremy Pelt / Soundtrack
--------------------------------------------------------------------------------
DR         Peak         RMS     Duration Track
--------------------------------------------------------------------------------
DR10      -0.70 dB   -13.02 dB      6:21 01-Picking Up the Pieces
DR9       -0.70 dB   -12.99 dB      5:59 02-Soundtrack
DR9       -0.70 dB   -12.45 dB      6:36 03-Be the Light
DR8       -0.70 dB   -10.42 dB      0:28 04-Part 1: The Lighter Side
DR10      -0.70 dB   -13.31 dB      3:56 05-Part 2: The Darker Side
DR10      -0.70 dB   -13.98 dB      3:17 06-Elegy
DR7       -0.70 dB    -9.81 dB      3:46 07-I'm Still Standing
DR10      -0.70 dB   -12.62 dB      4:19 08-I Love Music
DR9       -0.70 dB   -11.37 dB      5:26 09-Shifting Images
DR10      -0.70 dB   -13.68 dB      4:10 10-You and Me
--------------------------------------------------------------------------------
Number of tracks:  10
Official DR value: DR9
Samplerate:        48000 Hz
Channels:          2
Bits per sample:   24
Bitrate:           1533 kbps
Codec:             FLAC
================================================================================
Приватный:
Нет (DHT включён)
Размер:
533.59 Мб (559,505,634 байт) » файлов: 13
Участники:
1 раздают, 0 качают (1 участников всего)
Внешние участники:
--- [ Обновить ]
23:11
431
Нет комментариев. Ваш будет первым!