Поиск

2022 Kit Downes, Petter Eldh, James Maddren - Vermillion {ECM} [24-96]

2022 Kit Downes, Petter Eldh, James Maddren - Vermillion {ECM} [24-96]
Место записи:
Auditorio Stelio Molo, Lugano
Дата издания диска:
11 февраля 2022
Издатель (лейбл):
Номер по каталогу:
2721
Носитель:
WEB
Формат:
PCM
Тип рипа:
tracks
Контейнер:
FLAC (*.flac)
Количество каналов:
2.0
Разрядность/ЧД:
24/96
Битрейт аудио:
lossless
Время звучания:
00:45:29
Наличие сканов:
только обложка

01. Minus Monks  03:56
02. Sister, Sister  04:21
03. Seceda  04:42
04. Plus Puls  04:00
05. Rolling Thunder  02:32
06. Sandilands  04:35
07. Waders  03:34
08. Class Fails  06:08
09. Bobbl’s Song  03:19
10. Math Amager  03:29
11. Castles Made of Sand  04:53

Состав:
  • Kit Downes   Piano
  • Petter Eldh   Double Bass
  • James Maddren   Drums
Лог проверки качества
foobar2000 1.6.6 / Dynamic Range Meter 1.1.1
log date: 2022-02-11 17:54:25
--------------------------------------------------------------------------------
Analyzed: Kit Downes, Petter Eldh, James Maddren / Vermillion
--------------------------------------------------------------------------------
DR         Peak         RMS     Duration Track
--------------------------------------------------------------------------------
DR13      -4.28 dB   -21.32 dB      3:56 01-Minus Monks
DR14      -1.12 dB   -21.58 dB      4:21 02-Sister, Sister
DR13      -1.38 dB   -20.78 dB      4:42 03-Seceda
DR12      -2.07 dB   -20.79 dB      4:00 04-Plus Puls
DR16      -1.25 dB   -23.77 dB      2:33 05-Rolling Thunder
DR12      -0.70 dB   -17.42 dB      4:35 06-Sandilands
DR13      -1.23 dB   -19.06 dB      3:35 07-Waders
DR14      -1.51 dB   -21.65 dB      6:09 08-Class Fails
DR14      -0.70 dB   -22.32 dB      3:19 09-Bobbl’s Song
DR13      -0.98 dB   -20.27 dB      3:30 10-Math Amager
DR13      -0.84 dB   -19.59 dB      4:54 11-Castles Made of Sand
--------------------------------------------------------------------------------
Number of tracks:  11
Official DR value: DR13
Samplerate:        96000 Hz
Channels:          2
Bits per sample:   24
Bitrate:           2440 kbps
Codec:             FLAC
================================================================================
Приватный:
Нет (DHT включён)
Размер:
804.67 Мб (843,753,354 байт) » файлов: 14
Участники:
0 раздают, 0 качают (0 участников всего)
Внешние участники:
11 раздают, 4 качают (15 участников всего) [ Обновить ]
23:58
501
Нет комментариев. Ваш будет первым!