Поиск

2010 John Di Martino's Romantic Jazz Trio - Chopin Jazz (2017) {Venus} [DSD64 ISO]

2010 John Di Martino's Romantic Jazz Trio - Chopin Jazz (2017) {Venus} [DSD64 ISO]
Дата записи диска:
20 декабря - 21 декабря 2009
Место записи:
Avatar Studios, New York City, NY, USA
Дата издания диска:
21 апреля 2010
Дата переиздания диска:
20 декабря 2017
Издатель (лейбл):
Номер по каталогу:
VHGD-260
Носитель:
SACD
Формат:
DSD
Тип рипа:
image
Контейнер:
ISO (*.iso)
Количество каналов:
2.0
Разрядность/ЧД:
64 (2,8 MHz/1 Bit)
Битрейт аудио:
lossless
Время звучания:
00:56:15
Наличие сканов:
только обложка

01. Night Flower - Nocturne No. 15 in F minor, Op. 55/1  05:02
02. Cry of the Rain Forest - Prelude No. 2 in A minor, Op. 28-2  04:26
03. Lover's Temptation - Waltz No. 7 in C sharp minor, Op. 64/2  04:13
04. The Ballerina's Dream - Premiere Ballade No. 1 in G minor, Op. 23  04:22
05. No One But You - Etude No. 6 in E flat minor, Op. 10/6  04:08
06. Two Hearts Dancing - Nocturne No. 1 in B flat minor, Op. 9/1  04:34
07. Ancient Air - Krakowiak Op,14 in F major  02:16
08. A Woman in Love - Prelude No. 20 in C minor, Op. 28/20  05:50
09. Jasmine Lullaby - Mazurka No.13 in A minor Op.17-4  04:31
10. African Sunrise - Nocturne No. 7 in C sharp minor, Op. 27/1  02:47
11. Azure Kiss - Prelude No. 4 in E minor, Op. 28/4  04:19
12. Cinnamon Tears - Funeral March in C minor, Op. 72/2  03:21
13. Drifting In A Mist - Waltz No. 3 in A minor, Op. 34/2  06:20

Состав:
  • Bass – George Mraz
  • Drums – Richard De Rosa
  • Engineer – Katherine Miller
  • Piano, Arranged By – John Di Martino
  • Producer – Todd Barkan
  • Producer, Mixed By, Mastered By – Tetsuo Hara
Лог проверки качества
foobar2000 1.6.8 / Dynamic Range Meter 1.1.1
log date: 2022-02-10 20:58:05
--------------------------------------------------------------------------------
Analyzed: JOHN DIMARTINO'S ROMANTIC JAZZ TRIO / Chopin Jazz
--------------------------------------------------------------------------------
DR         Peak         RMS     Duration Track
--------------------------------------------------------------------------------
DR8       -4.21 dB   -13.52 dB      5:03 01-Night Flower
DR8       -4.50 dB   -13.96 dB      4:27 02-Cry Of The Rain Forest
DR7       -5.20 dB   -14.14 dB      4:13 03-Lover's Temptation
DR7       -4.58 dB   -13.85 dB      4:22 04-The Ballerina's Dream
DR7       -5.41 dB   -13.77 dB      4:09 05-No One But You
DR8       -4.42 dB   -14.46 dB      4:35 06-Two Hearts Dancing
DR6       -5.54 dB   -14.34 dB      2:16 07-Ancient Air
DR7       -4.38 dB   -13.29 dB      5:50 08-A Woman In Love
DR7       -5.13 dB   -14.64 dB      4:32 09-Jasmine Lullaby
DR7       -5.53 dB   -14.25 dB      2:47 10-African Sunrise
DR7       -5.42 dB   -14.35 dB      4:20 11-Azure Kiss
DR7       -5.62 dB   -13.96 dB      3:22 12-Cinnamon Tears
DR7       -4.60 dB   -13.91 dB      6:20 13-Drifting In A Mist
--------------------------------------------------------------------------------
Number of tracks:  13
Official DR value: DR7
Samplerate:        2822400 Hz / PCM Samplerate: 88200 Hz
Channels:          2
Bits per sample:   1
Bitrate:           5645 kbps
Codec:             DSD64
================================================================================
Приватный:
Нет (DHT включён)
Размер:
2.27 Гб (2,432,077,190 байт) » файлов: 4
Участники:
0 раздают, 0 качают (0 участников всего)
Внешние участники:
11 раздают, 4 качают (15 участников всего) [ Обновить ]
23:18
551
Нет комментариев. Ваш будет первым!